  0
SECTION
  2
HEADER
  9
$ACADVER
  1
AC1015
  9
$ACADMAINTVER
 70
     6
  9
$DWGCODEPAGE
  3
ANSI_1252
  9
$INSBASE
 10
0.0
 20
0.0
 30
0.0
  9
$EXTMIN
 10
-271.5
 20
-87.0
 30
0.0
  9
$EXTMAX
 10
568.5
 20
507.0
 30
0.0
  9
$LIMMIN
 10
-271.5
 20
-87.0
  9
$LIMMAX
 10
568.5
 20
507.0
  9
$ORTHOMODE
 70
     0
  9
$REGENMODE
 70
     1
  9
$FILLMODE
 70
     1
  9
$QTEXTMODE
 70
     0
  9
$MIRRTEXT
 70
     1
  9
$LTSCALE
 40
2.0
  9
$ATTMODE
 70
     1
  9
$TEXTSIZE
 40
2.5
  9
$TRACEWID
 40
1.0
  9
$TEXTSTYLE
  7
Standard
  9
$CLAYER
  8
0
  9
$CELTYPE
  6
ByLayer
  9
$CECOLOR
 62
     7
  9
$CELTSCALE
 40
1.0
  9
$DISPSILH
 70
     0
  9
$DIMSCALE
 40
2.0
  9
$DIMASZ
 40
3.5
  9
$DIMEXO
 40
0.625
  9
$DIMDLI
 40
3.75
  9
$DIMRND
 40
0.0
  9
$DIMDLE
 40
0.0
  9
$DIMEXE
 40
1.25
  9
$DIMTP
 40
0.0
  9
$DIMTM
 40
0.0
  9
$DIMTXT
 40
3.5
  9
$DIMCEN
 40
2.5
  9
$DIMTSZ
 40
0.0
  9
$DIMTOL
 70
     0
  9
$DIMLIM
 70
     0
  9
$DIMTIH
 70
     0
  9
$DIMTOH
 70
     0
  9
$DIMSE1
 70
     0
  9
$DIMSE2
 70
     0
  9
$DIMTAD
 70
     1
  9
$DIMZIN
 70
     8
  9
$DIMBLK
  1

  9
$DIMASO
 70
     1
  9
$DIMSHO
 70
     1
  9
$DIMPOST
  1

  9
$DIMAPOST
  1

  9
$DIMALT
 70
     0
  9
$DIMALTD
 70
     3
  9
$DIMALTF
 40
0.03937
  9
$DIMLFAC
 40
1.0
  9
$DIMTOFL
 70
     1
  9
$DIMTVP
 40
0.0
  9
$DIMTIX
 70
     0
  9
$DIMSOXD
 70
     0
  9
$DIMSAH
 70
     0
  9
$DIMBLK1
  1

  9
$DIMBLK2
  1

  9
$DIMSTYLE
  2
ISO-25
  9
$DIMCLRD
 70
     0
  9
$DIMCLRE
 70
     0
  9
$DIMCLRT
 70
     0
  9
$DIMTFAC
 40
1.0
  9
$DIMGAP
 40
0.625
  9
$DIMJUST
 70
     0
  9
$DIMSD1
 70
     0
  9
$DIMSD2
 70
     0
  9
$DIMTOLJ
 70
     0
  9
$DIMTZIN
 70
     8
  9
$DIMALTZ
 70
     0
  9
$DIMALTTZ
 70
     0
  9
$DIMUPT
 70
     0
  9
$DIMDEC
 70
     2
  9
$DIMTDEC
 70
     2
  9
$DIMALTU
 70
     2
  9
$DIMALTTD
 70
     3
  9
$DIMTXSTY
  7
Standard
  9
$DIMAUNIT
 70
     0
  9
$DIMADEC
 70
     0
  9
$DIMALTRND
 40
0.0
  9
$DIMAZIN
 70
     0
  9
$DIMDSEP
 70
    44
  9
$DIMATFIT
 70
     3
  9
$DIMFRAC
 70
     0
  9
$DIMLDRBLK
  1

  9
$DIMLUNIT
 70
     2
  9
$DIMLWD
 70
    -2
  9
$DIMLWE
 70
    -2
  9
$DIMTMOVE
 70
     0
  9
$LUNITS
 70
     2
  9
$LUPREC
 70
     4
  9
$SKETCHINC
 40
1.0
  9
$FILLETRAD
 40
10.0
  9
$AUNITS
 70
     0
  9
$AUPREC
 70
     0
  9
$MENU
  1
.
  9
$ELEVATION
 40
0.0
  9
$PELEVATION
 40
0.0
  9
$THICKNESS
 40
0.0
  9
$LIMCHECK
 70
     0
  9
$CHAMFERA
 40
10.0
  9
$CHAMFERB
 40
10.0
  9
$CHAMFERC
 40
20.0
  9
$CHAMFERD
 40
0.0
  9
$SKPOLY
 70
     0
  9
$TDCREATE
 40
2456924.270449908
  9
$TDUCREATE
 40
2456924.187116574
  9
$TDUPDATE
 40
2456924.270449919
  9
$TDUUPDATE
 40
2456924.187116586
  9
$TDINDWG
 40
0.0000000116
  9
$TDUSRTIMER
 40
0.0000000116
  9
$USRTIMER
 70
     1
  9
$ANGBASE
 50
0.0
  9
$ANGDIR
 70
     0
  9
$PDMODE
 70
     0
  9
$PDSIZE
 40
0.0
  9
$PLINEWID
 40
0.0
  9
$SPLFRAME
 70
     0
  9
$SPLINETYPE
 70
     6
  9
$SPLINESEGS
 70
     8
  9
$HANDSEED
  5
400
  9
$SURFTAB1
 70
     6
  9
$SURFTAB2
 70
     6
  9
$SURFTYPE
 70
     6
  9
$SURFU
 70
     6
  9
$SURFV
 70
     6
  9
$UCSBASE
  2

  9
$UCSNAME
  2

  9
$UCSORG
 10
0.0
 20
0.0
 30
0.0
  9
$UCSXDIR
 10
1.0
 20
0.0
 30
0.0
  9
$UCSYDIR
 10
0.0
 20
1.0
 30
0.0
  9
$UCSORTHOREF
  2

  9
$UCSORTHOVIEW
 70
     0
  9
$UCSORGTOP
 10
0.0
 20
0.0
 30
0.0
  9
$UCSORGBOTTOM
 10
0.0
 20
0.0
 30
0.0
  9
$UCSORGLEFT
 10
0.0
 20
0.0
 30
0.0
  9
$UCSORGRIGHT
 10
0.0
 20
0.0
 30
0.0
  9
$UCSORGFRONT
 10
0.0
 20
0.0
 30
0.0
  9
$UCSORGBACK
 10
0.0
 20
0.0
 30
0.0
  9
$PUCSBASE
  2

  9
$PUCSNAME
  2

  9
$PUCSORG
 10
0.0
 20
0.0
 30
0.0
  9
$PUCSXDIR
 10
1.0
 20
0.0
 30
0.0
  9
$PUCSYDIR
 10
0.0
 20
1.0
 30
0.0
  9
$PUCSORTHOREF
  2

  9
$PUCSORTHOVIEW
 70
     0
  9
$PUCSORGTOP
 10
0.0
 20
0.0
 30
0.0
  9
$PUCSORGBOTTOM
 10
0.0
 20
0.0
 30
0.0
  9
$PUCSORGLEFT
 10
0.0
 20
0.0
 30
0.0
  9
$PUCSORGRIGHT
 10
0.0
 20
0.0
 30
0.0
  9
$PUCSORGFRONT
 10
0.0
 20
0.0
 30
0.0
  9
$PUCSORGBACK
 10
0.0
 20
0.0
 30
0.0
  9
$USERI1
 70
     0
  9
$USERI2
 70
     0
  9
$USERI3
 70
     0
  9
$USERI4
 70
     0
  9
$USERI5
 70
     0
  9
$USERR1
 40
0.0
  9
$USERR2
 40
0.0
  9
$USERR3
 40
0.0
  9
$USERR4
 40
0.0
  9
$USERR5
 40
0.0
  9
$WORLDVIEW
 70
     1
  9
$SHADEDGE
 70
     3
  9
$SHADEDIF
 70
    70
  9
$TILEMODE
 70
     1
  9
$MAXACTVP
 70
    64
  9
$PINSBASE
 10
0.0
 20
0.0
 30
0.0
  9
$PLIMCHECK
 70
     0
  9
$PEXTMIN
 10
-271.5
 20
-87.0
 30
0.0
  9
$PEXTMAX
 10
568.5
 20
507.0
 30
0.0
  9
$PLIMMIN
 10
-271.5
 20
-87.0
  9
$PLIMMAX
 10
568.5
 20
507.0
  9
$UNITMODE
 70
     0
  9
$VISRETAIN
 70
     1
  9
$PLINEGEN
 70
     0
  9
$PSLTSCALE
 70
     1
  9
$TREEDEPTH
 70
  3020
  9
$CMLSTYLE
  2
Standard
  9
$CMLJUST
 70
     0
  9
$CMLSCALE
 40
20.0
  9
$PROXYGRAPHICS
 70
     1
  9
$MEASUREMENT
 70
     1
  9
$CELWEIGHT
370
    -1
  9
$ENDCAPS
280
     0
  9
$JOINSTYLE
280
     0
  9
$LWDISPLAY
290
     0
  9
$INSUNITS
 70
     4
  9
$HYPERLINKBASE
  1

  9
$STYLESHEET
  1

  9
$XEDIT
290
     1
  9
$CEPSNTYPE
380
     0
  9
$PSTYLEMODE
290
     1
  9
$FINGERPRINTGUID
  2
{FAEB1C30-E019-11D5-929B-00C0DF256EC4}
  9
$VERSIONGUID
  2
{FAEB1C32-E019-11D5-929B-00C0DF256EC4}
  9
$EXTNAMES
290
     1
  9
$PSVPSCALE
 40
0.0
  9
$OLESTARTUP
290
     0
  0
ENDSEC
  0
SECTION
  2
CLASSES
  0
CLASS
  1
ACDBDICTIONARYWDFLT
  2
AcDbDictionaryWithDefault
  3
ObjectDBX Classes
 90
        0
280
     0
281
     0
  0
CLASS
  1
ACDBPLACEHOLDER
  2
AcDbPlaceHolder
  3
ObjectDBX Classes
 90
        0
280
     0
281
     0
  0
CLASS
  1
LAYOUT
  2
AcDbLayout
  3
ObjectDBX Classes
 90
        0
280
     0
281
     0
  0
ENDSEC
  0
SECTION
  2
TABLES
  0
TABLE
  2
VPORT
  5
8
330
0
100
AcDbSymbolTable
 70
     2
  0
VPORT
  5
29
330
8
100
AcDbSymbolTableRecord
100
AcDbViewportTableRecord
  2
*ACTIVE
 70
     0
 10
0.0
 20
0.0
 11
1.0
 21
1.0
 12
148.5
 22
210.0
 13
0.0
 23
0.0
 14
1.0
 24
1.0
 15
0.0
 25
0.0
 16
0.0
 26
0.0
 36
1.0
 17
0.0
 27
0.0
 37
0.0
 40
594.0
 41
1.414141
 42
50.0
 43
0.0
 44
0.0
 50
0.0
 51
0.0
 71
    16
 72
   100
 73
     1
 74
     0
 75
     0
 76
     0
 77
     0
 78
     0
281
     0
 65
     0
110
0.0
120
0.0
130
0.0
111
1.0
121
0.0
131
0.0
112
0.0
122
1.0
132
0.0
 79
     0
146
0.0
  0
ENDTAB
  0
TABLE
  2
LTYPE
  5
5
330
0
100
AcDbSymbolTable
 70
     4
  0
LTYPE
  5
14
330
5
100
AcDbSymbolTableRecord
100
AcDbLinetypeTableRecord
  2
ByBlock
 70
     0
  3

 72
    65
 73
     0
 40
0.0
  0
LTYPE
  5
15
330
5
100
AcDbSymbolTableRecord
100
AcDbLinetypeTableRecord
  2
ByLayer
 70
     0
  3

 72
    65
 73
     0
 40
0.0
  0
LTYPE
  5
16
330
5
100
AcDbSymbolTableRecord
100
AcDbLinetypeTableRecord
  2
Continuous
 70
     0
  3
Solid line
 72
    65
 73
     0
 40
0.0
  0
LTYPE
  5
2A
330
5
100
AcDbSymbolTableRecord
100
AcDbLinetypeTableRecord
  2
DASHED
 70
     0
  3
__ __ __ __ __
 72
    65
 73
     2
 40
6.25
 49
5.0
 74
     4
 75
     0
340
0
 46
1.0
 50
0.0
 44
0.0
 45
0.0
 49
-1.25
 74
     4
 75
     0
340
0
 46
1.0
 50
0.0
 44
0.0
 45
0.0
  0
LTYPE
  5
137
330
5
100
AcDbSymbolTableRecord
100
AcDbLinetypeTableRecord
  2
CENTER
 70
     0
  3
__ . __ . __ . __ . __
 72
    65
 73
     4
 40
7.5
 49
5.0
 74
     4
 75
     0
340
0
 46
1.0
 50
0.0
 44
0.0
 45
0.0
 49
-1.25
 74
     4
 75
     0
340
0
 46
1.0
 50
0.0
 44
0.0
 45
0.0
 49
0.0
 74
     4
 75
     0
340
0
 46
1.0
 50
0.0
 44
0.0
 45
0.0
 49
-1.25
 74
     4
 75
     0
340
0
 46
1.0
 50
0.0
 44
0.0
 45
0.0
  0
LTYPE
  5
30A
330
5
100
AcDbSymbolTableRecord
100
AcDbLinetypeTableRecord
  2
DASHDOT
 70
     0
  3
__ . __ . __ . __ . __
 72
    65
 73
     4
 40
7.5
 49
5.0
 74
     4
 75
     0
340
0
 46
1.0
 50
0.0
 44
0.0
 45
0.0
 49
-1.25
 74
     4
 75
     0
340
0
 46
1.0
 50
0.0
 44
0.0
 45
0.0
 49
0.0
 74
     4
 75
     0
340
0
 46
1.0
 50
0.0
 44
0.0
 45
0.0
 49
-1.25
 74
     4
 75
     0
340
0
 46
1.0
 50
0.0
 44
0.0
 45
0.0
  0
ENDTAB
  0
TABLE
  2
LAYER
  5
2
330
0
100
AcDbSymbolTable
 70
    14
  0
LAYER
  5
10
330
2
100
AcDbSymbolTableRecord
100
AcDbLayerTableRecord
  2
0
 70
     0
 62
     7
  6
Continuous
370
    -3
390
F
  0
LAYER
  5
2B
330
2
100
AcDbSymbolTableRecord
100
AcDbLayerTableRecord
  2
LC-INFO-1-2-mm-A3-0
 70
     1
 62
     7
  6
ByBlock
370
    -3
390
F
  0
LAYER
  5
2C
330
2
100
AcDbSymbolTableRecord
100
AcDbLayerTableRecord
  2
LC-CUT-HIDDEN
 70
     0
 62
     7
  6
DASHED
370
    -3
390
F
  0
LAYER
  5
2D
330
2
100
AcDbSymbolTableRecord
100
AcDbLayerTableRecord
  2
LC-VIEWPORT
 70
     0
 62
     7
  6
ByBlock
370
    -3
390
F
  0
LAYER
  5
2E
330
2
100
AcDbSymbolTableRecord
100
AcDbLayerTableRecord
  2
LC-3D-HIDDEN
 70
     0
 62
     9
  6
DASHED
370
    -3
390
F
  0
LAYER
  5
30
330
2
100
AcDbSymbolTableRecord
100
AcDbLayerTableRecord
  2
LC-001-002-----0
 70
     0
 62
     1
  6
ByBlock
370
    -3
390
F
  0
LAYER
  5
32
330
2
100
AcDbSymbolTableRecord
100
AcDbLayerTableRecord
  2
LC-002-002-RND-0
 70
     0
 62
     1
  6
ByBlock
370
    -3
390
F
  0
LAYER
  5
3C
330
2
100
AcDbSymbolTableRecord
100
AcDbLayerTableRecord
  2
LC-003-005-----0
 70
     0
 62
     2
  6
ByBlock
370
    -3
390
F
  0
LAYER
  5
6B
330
2
100
AcDbSymbolTableRecord
100
AcDbLayerTableRecord
  2
LC-004-003-----0
 70
     0
 62
     2
  6
ByBlock
370
    -3
390
F
  0
LAYER
  5
F6
330
2
100
AcDbSymbolTableRecord
100
AcDbLayerTableRecord
  2
LC-005-101-----0
 70
     0
 62
     1
  6
ByBlock
370
    -3
390
F
  0
LAYER
  5
138
330
2
100
AcDbSymbolTableRecord
100
AcDbLayerTableRecord
  2
LC-006-006-MLN-0
 70
     0
 62
     2
  6
CENTER
370
    -3
390
F
  0
LAYER
  5
146
330
2
100
AcDbSymbolTableRecord
100
AcDbLayerTableRecord
  2
LC-007-101-RND-0
 70
     0
 62
     1
  6
ByBlock
370
    -3
390
F
  0
LAYER
  5
2B3
330
2
100
AcDbSymbolTableRecord
100
AcDbLayerTableRecord
  2
Defpoints
 70
     0
 62
     7
  6
Continuous
290
     0
370
    -3
390
F
  0
LAYER
  5
30B
330
2
100
AcDbSymbolTableRecord
100
AcDbLayerTableRecord
  2
LC-008-007-KH--0
 70
     0
 62
    44
  6
DASHDOT
370
    -3
390
F
  0
ENDTAB
  0
TABLE
  2
STYLE
  5
3
330
0
100
AcDbSymbolTable
 70
     3
  0
STYLE
  5
11
330
3
100
AcDbSymbolTableRecord
100
AcDbTextStyleTableRecord
  2
Standard
 70
     0
 40
0.0
 41
1.0
 50
0.0
 71
     0
 42
2.5
  3
txt
  4

  0
STYLE
  5
2F
330
3
100
AcDbSymbolTableRecord
100
AcDbTextStyleTableRecord
  2
LCTX15-400-0-0-Arial
 70
     0
 40
0.0
 41
0.9
 50
0.0
 71
     0
 42
3.5
  3

  4

1001
ACAD
1000
Arial
1071
 16777218
  0
STYLE
  5
2B0
330
3
100
AcDbSymbolTableRecord
100
AcDbTextStyleTableRecord
  2
LCTX15-400-0-0pDIN-Schrift
 70
     0
 40
2.5
 41
0.8
 50
15.0
 71
     0
 42
3.5
  3
STANDARD
  4

  0
ENDTAB
  0
TABLE
  2
VIEW
  5
6
330
0
100
AcDbSymbolTable
 70
     0
  0
ENDTAB
  0
TABLE
  2
UCS
  5
7
330
0
100
AcDbSymbolTable
 70
     0
  0
ENDTAB
  0
TABLE
  2
APPID
  5
9
330
0
100
AcDbSymbolTable
 70
     1
  0
APPID
  5
12
330
9
100
AcDbSymbolTableRecord
100
AcDbRegAppTableRecord
  2
ACAD
 70
     0
  0
ENDTAB
  0
TABLE
  2
DIMSTYLE
  5
A
330
0
100
AcDbSymbolTable
 70
     2
100
AcDbDimStyleTable
  0
DIMSTYLE
105
27
330
A
100
AcDbSymbolTableRecord
100
AcDbDimStyleTableRecord
  2
ISO-25
 70
     0
 41
2.5
 42
0.625
 43
3.75
 44
1.25
 73
     0
 74
     0
 77
     1
 78
     8
140
2.5
141
2.5
143
0.03937
147
0.625
171
     3
172
     1
271
     2
272
     2
274
     3
278
    44
283
     0
284
     8
340
11
  0
DIMSTYLE
105
2B1
102
{ACAD_REACTORS
330
2B2
330
2C0
330
2E5
330
2F2
330
3E1
330
3EF
102
}
330
A
100
AcDbSymbolTableRecord
100
AcDbDimStyleTableRecord
  2
LC-DIM-L-0140-02-02
 70
     0
 40
2.0
 41
14.0
 42
0.0
 43
7.5
 44
1.8
 73
     0
 74
     0
 77
     1
 78
     8
 79
     2
140
14.0
141
0.0
146
0.71
147
1.5
176
     2
177
     2
178
     2
179
     2
271
     2
278
    44
289
     1
340
2B0
  0
ENDTAB
  0
TABLE
  2
BLOCK_RECORD
  5
1
330
0
100
AcDbSymbolTable
 70
    27
  0
BLOCK_RECORD
  5
1F
330
1
100
AcDbSymbolTableRecord
100
AcDbBlockTableRecord
  2
*Model_Space
340
22
  0
BLOCK_RECORD
  5
1B
330
1
100
AcDbSymbolTableRecord
100
AcDbBlockTableRecord
  2
*Paper_Space
340
1E
  0
BLOCK_RECORD
  5
23
330
1
100
AcDbSymbolTableRecord
100
AcDbBlockTableRecord
  2
*Paper_Space0
340
26
  0
BLOCK_RECORD
  5
39
330
1
100
AcDbSymbolTableRecord
100
AcDbBlockTableRecord
  2
*X11
340
0
102
{BLKREFS
331
46
102
}
  0
BLOCK_RECORD
  5
89
330
1
100
AcDbSymbolTableRecord
100
AcDbBlockTableRecord
  2
*X22
340
0
102
{BLKREFS
331
94
102
}
  0
BLOCK_RECORD
  5
9C
330
1
100
AcDbSymbolTableRecord
100
AcDbBlockTableRecord
  2
*X33
340
0
102
{BLKREFS
331
A3
102
}
  0
BLOCK_RECORD
  5
A6
330
1
100
AcDbSymbolTableRecord
100
AcDbBlockTableRecord
  2
*X44
340
0
102
{BLKREFS
331
F1
102
}
  0
BLOCK_RECORD
  5
110
330
1
100
AcDbSymbolTableRecord
100
AcDbBlockTableRecord
  2
*X55
340
0
102
{BLKREFS
331
136
102
}
  0
BLOCK_RECORD
  5
154
330
1
100
AcDbSymbolTableRecord
100
AcDbBlockTableRecord
  2
*X66
340
0
102
{BLKREFS
331
171
102
}
  0
BLOCK_RECORD
  5
18B
330
1
100
AcDbSymbolTableRecord
100
AcDbBlockTableRecord
  2
*X77
340
0
102
{BLKREFS
331
190
102
}
  0
BLOCK_RECORD
  5
1B9
330
1
100
AcDbSymbolTableRecord
100
AcDbBlockTableRecord
  2
*X88
340
0
102
{BLKREFS
331
1E9
102
}
  0
BLOCK_RECORD
  5
1EA
330
1
100
AcDbSymbolTableRecord
100
AcDbBlockTableRecord
  2
*X99
340
0
102
{BLKREFS
331
217
102
}
  0
BLOCK_RECORD
  5
26F
330
1
100
AcDbSymbolTableRecord
100
AcDbBlockTableRecord
  2
*X1010
340
0
102
{BLKREFS
331
28E
102
}
  0
BLOCK_RECORD
  5
28F
330
1
100
AcDbSymbolTableRecord
100
AcDbBlockTableRecord
  2
*X1111
340
0
102
{BLKREFS
331
2AF
102
}
  0
BLOCK_RECORD
  5
2B4
330
1
100
AcDbSymbolTableRecord
100
AcDbBlockTableRecord
  2
*D12
340
0
  0
BLOCK_RECORD
  5
2C1
330
1
100
AcDbSymbolTableRecord
100
AcDbBlockTableRecord
  2
*D13
340
0
  0
BLOCK_RECORD
  5
2E6
330
1
100
AcDbSymbolTableRecord
100
AcDbBlockTableRecord
  2
*D14
340
0
  0
BLOCK_RECORD
  5
2F3
330
1
100
AcDbSymbolTableRecord
100
AcDbBlockTableRecord
  2
*D15
340
0
  0
BLOCK_RECORD
  5
360
330
1
100
AcDbSymbolTableRecord
100
AcDbBlockTableRecord
  2
*X1216
340
0
102
{BLKREFS
331
36A
102
}
  0
BLOCK_RECORD
  5
36B
330
1
100
AcDbSymbolTableRecord
100
AcDbBlockTableRecord
  2
*X1317
340
0
102
{BLKREFS
331
374
102
}
  0
BLOCK_RECORD
  5
375
330
1
100
AcDbSymbolTableRecord
100
AcDbBlockTableRecord
  2
*X1418
340
0
102
{BLKREFS
331
37E
102
}
  0
BLOCK_RECORD
  5
397
330
1
100
AcDbSymbolTableRecord
100
AcDbBlockTableRecord
  2
*X1519
340
0
102
{BLKREFS
331
3A0
102
}
  0
BLOCK_RECORD
  5
3A1
330
1
100
AcDbSymbolTableRecord
100
AcDbBlockTableRecord
  2
*X1620
340
0
102
{BLKREFS
331
3AA
102
}
  0
BLOCK_RECORD
  5
3AB
330
1
100
AcDbSymbolTableRecord
100
AcDbBlockTableRecord
  2
*X1721
340
0
102
{BLKREFS
331
3BD
102
}
  0
BLOCK_RECORD
  5
3BE
330
1
100
AcDbSymbolTableRecord
100
AcDbBlockTableRecord
  2
*X1822
340
0
102
{BLKREFS
331
3C8
102
}
  0
BLOCK_RECORD
  5
3C9
330
1
100
AcDbSymbolTableRecord
100
AcDbBlockTableRecord
  2
*X1923
340
0
102
{BLKREFS
331
3D2
102
}
  0
BLOCK_RECORD
  5
3D3
330
1
100
AcDbSymbolTableRecord
100
AcDbBlockTableRecord
  2
*X2024
340
0
102
{BLKREFS
331
3DC
102
}
  0
BLOCK_RECORD
  5
3E2
330
1
100
AcDbSymbolTableRecord
100
AcDbBlockTableRecord
  2
*D25
340
0
  0
BLOCK_RECORD
  5
3F0
330
1
100
AcDbSymbolTableRecord
100
AcDbBlockTableRecord
  2
*D26
340
0
  0
ENDTAB
  0
ENDSEC
  0
SECTION
  2
BLOCKS
  0
BLOCK
  5
20
330
1F
100
AcDbEntity
  8
0
100
AcDbBlockBegin
  2
*Model_Space
 70
     0
 71
     0
 10
0.0
 20
0.0
 30
0.0
  3
*Model_Space
  1

  0
ENDBLK
  5
21
330
1F
100
AcDbEntity
  8
0
100
AcDbBlockEnd
  0
BLOCK
  5
1C
330
1B
100
AcDbEntity
 67
     1
  8
0
100
AcDbBlockBegin
  2
*Paper_Space
 70
     0
 71
     0
 10
0.0
 20
0.0
 30
0.0
  3
*Paper_Space
  1

  0
ENDBLK
  5
1D
330
1B
100
AcDbEntity
 67
     1
  8
0
100
AcDbBlockEnd
  0
BLOCK
  5
24
330
23
100
AcDbEntity
  8
0
100
AcDbBlockBegin
  2
*Paper_Space0
 70
     0
 71
     0
 10
0.0
 20
0.0
 30
0.0
  3
*Paper_Space0
  1

  0
ENDBLK
  5
25
330
23
100
AcDbEntity
  8
0
100
AcDbBlockEnd
  0
BLOCK
  5
3A
330
39
100
AcDbEntity
  8
0
100
AcDbBlockBegin
  2
*X11
 70
     1
 71
     0
 10
0.0
 20
0.0
 30
0.0
  3
*X11
  1

  4
*X1
  0
LINE
  5
3D
330
39
100
AcDbEntity
  8
LC-003-005-----0
 62
     7
370
    25
100
AcDbLine
 10
96.900525
 20
357.11582
 30
0.0
 11
97.450165
 21
357.66546
 31
0.0
  0
LINE
  5
3E
330
39
100
AcDbEntity
  8
LC-003-005-----0
 62
     7
370
    25
100
AcDbLine
 10
97.009633
 20
360.053356
 30
0.0
 11
97.709633
 21
360.753356
 31
0.0
  0
LINE
  5
3F
330
39
100
AcDbEntity
  8
LC-003-005-----0
 62
     7
370
    25
100
AcDbLine
 10
97.371988
 20
363.244138
 30
0.0
 11
97.709633
 21
363.581783
 31
0.0
  0
LINE
  5
40
330
39
100
AcDbEntity
  8
LC-003-005-----0
 62
     7
370
    25
100
AcDbLine
 10
95.951242
 20
364.651819
 30
0.0
 11
96.643727
 21
365.344303
 31
0.0
  0
LINE
  5
41
330
39
100
AcDbEntity
  8
LC-003-005-----0
 62
     7
370
    25
100
AcDbLine
 10
93.629903
 20
365.158907
 30
0.0
 11
94.143062
 21
365.672066
 31
0.0
  0
LINE
  5
42
330
39
100
AcDbEntity
  8
LC-003-005-----0
 62
     7
370
    25
100
AcDbLine
 10
93.030813
 20
367.388244
 30
0.0
 11
93.553282
 21
367.910713
 31
0.0
  0
LINE
  5
43
330
39
100
AcDbEntity
  8
LC-003-005-----0
 62
     7
370
    25
100
AcDbLine
 10
90.724685
 20
367.910543
 30
0.0
 11
91.410347
 21
368.596205
 31
0.0
  0
LINE
  5
44
330
39
100
AcDbEntity
  8
LC-003-005-----0
 62
     7
370
    25
100
AcDbLine
 10
89.709633
 20
369.723919
 30
0.0
 11
90.409633
 21
370.423919
 31
0.0
  0
LINE
  5
45
330
39
100
AcDbEntity
  8
LC-003-005-----0
 62
     7
370
    25
100
AcDbLine
 10
89.009633
 20
371.852346
 30
0.0
 11
90.409633
 21
373.252346
 31
0.0
  0
ENDBLK
  5
3B
330
39
100
AcDbEntity
  8
0
100
AcDbBlockEnd
  0
BLOCK
  5
8A
330
89
100
AcDbEntity
  8
0
100
AcDbBlockBegin
  2
*X22
 70
     1
 71
     0
 10
0.0
 20
0.0
 30
0.0
  3
*X22
  1

  4
*X2
  0
LINE
  5
8C
330
89
100
AcDbEntity
  8
LC-003-005-----0
 62
     7
370
    25
100
AcDbLine
 10
199.423787
 20
357.815706
 30
0.0
 11
200.468285
 21
358.860204
 31
0.0
  0
LINE
  5
8D
330
89
100
AcDbEntity
  8
LC-003-005-----0
 62
     7
370
    25
100
AcDbLine
 10
199.109633
 20
360.329979
 30
0.0
 11
199.809633
 21
361.029979
 31
0.0
  0
LINE
  5
8E
330
89
100
AcDbEntity
  8
LC-003-005-----0
 62
     7
370
    25
100
AcDbLine
 10
199.109633
 20
363.158407
 30
0.0
 11
199.406724
 21
363.455497
 31
0.0
  0
LINE
  5
8F
330
89
100
AcDbEntity
  8
LC-003-005-----0
 62
     7
370
    25
100
AcDbLine
 10
200.603046
 20
364.651819
 30
0.0
 11
201.303046
 21
365.351819
 31
0.0
  0
LINE
  5
90
330
89
100
AcDbEntity
  8
LC-003-005-----0
 62
     7
370
    25
100
AcDbLine
 10
202.709633
 20
366.758407
 30
0.0
 11
204.394129
 21
368.442902
 31
0.0
  0
LINE
  5
91
330
89
100
AcDbEntity
  8
LC-003-005-----0
 62
     7
370
    25
100
AcDbLine
 10
206.409633
 20
370.458407
 30
0.0
 11
207.109633
 21
371.158407
 31
0.0
  0
LINE
  5
92
330
89
100
AcDbEntity
  8
LC-003-005-----0
 62
     7
370
    25
100
AcDbLine
 10
207.547432
 20
371.596205
 30
0.0
 11
207.809633
 21
371.858407
 31
0.0
  0
LINE
  5
93
330
89
100
AcDbEntity
  8
LC-003-005-----0
 62
     7
370
    25
100
AcDbLine
 10
206.409633
 20
373.286834
 30
0.0
 11
207.211546
 21
374.088747
 31
0.0
  0
ENDBLK
  5
8B
330
89
100
AcDbEntity
  8
0
100
AcDbBlockEnd
  0
BLOCK
  5
9D
330
9C
100
AcDbEntity
  8
0
100
AcDbBlockBegin
  2
*X33
 70
     1
 71
     0
 10
0.0
 20
0.0
 30
0.0
  3
*X33
  1

  4
*X3
  0
LINE
  5
9F
330
9C
100
AcDbEntity
  8
LC-003-005-----0
  6
DASHED
 62
     7
370
    25
100
AcDbLine
 10
199.820316
 20
362.454875
 30
0.0
 11
201.583224
 21
364.217783
 31
0.0
  0
LINE
  5
A0
330
9C
100
AcDbEntity
  8
LC-003-005-----0
  6
DASHED
 62
     7
370
    25
100
AcDbLine
 10
199.386734
 20
363.435507
 30
0.0
 11
200.602592
 21
364.651365
 31
0.0
  0
LINE
  5
A1
330
9C
100
AcDbEntity
  8
LC-003-005-----0
  6
DASHED
 62
     7
370
    25
100
AcDbLine
 10
96.289038
 20
362.161188
 30
0.0
 11
97.376911
 21
363.249061
 31
0.0
  0
LINE
  5
A2
330
9C
100
AcDbEntity
  8
LC-003-005-----0
 62
     7
370
    25
100
AcDbLine
 10
94.902606
 20
363.603183
 30
0.0
 11
95.934917
 21
364.635493
 31
0.0
  0
ENDBLK
  5
9E
330
9C
100
AcDbEntity
  8
0
100
AcDbBlockEnd
  0
BLOCK
  5
A7
330
A6
100
AcDbEntity
  8
0
100
AcDbBlockBegin
  2
*X44
 70
     1
 71
     0
 10
0.0
 20
0.0
 30
0.0
  3
*X44
  1

  4
*X4
  0
LINE
  5
A9
330
A6
100
AcDbEntity
  8
LC-003-005-----0
 62
     7
370
    25
100
AcDbLine
 10
175.704698
 20
263.385939
 30
0.0
 11
179.658162
 21
267.339403
 31
0.0
  0
LINE
  5
AA
330
A6
100
AcDbEntity
  8
LC-003-005-----0
 62
     7
370
    25
100
AcDbLine
 10
171.672646
 20
262.182314
 30
0.0
 11
173.577406
 21
264.087074
 31
0.0
  0
LINE
  5
AB
330
A6
100
AcDbEntity
  8
LC-003-005-----0
 62
     7
370
    25
100
AcDbLine
 10
178.957027
 20
269.466695
 30
0.0
 11
180.861787
 21
271.371455
 31
0.0
  0
LINE
  5
AC
330
A6
100
AcDbEntity
  8
LC-003-005-----0
 62
     7
370
    25
100
AcDbLine
 10
168.813724
 20
262.151819
 30
0.0
 11
170.313724
 21
263.651819
 31
0.0
  0
LINE
  5
AD
330
A6
100
AcDbEntity
  8
LC-003-005-----0
 62
     7
370
    25
100
AcDbLine
 10
179.392282
 20
272.730377
 30
0.0
 11
180.892282
 21
274.230377
 31
0.0
  0
LINE
  5
AE
330
A6
100
AcDbEntity
  8
LC-003-005-----0
 62
     7
370
    25
100
AcDbLine
 10
165.985297
 20
262.151819
 30
0.0
 11
167.485297
 21
263.651819
 31
0.0
  0
LINE
  5
AF
330
A6
100
AcDbEntity
  8
LC-003-005-----0
 62
     7
370
    25
100
AcDbLine
 10
179.392282
 20
275.558804
 30
0.0
 11
180.892282
 21
277.058804
 31
0.0
  0
LINE
  5
B0
330
A6
100
AcDbEntity
  8
LC-003-005-----0
 62
     7
370
    25
100
AcDbLine
 10
163.15687
 20
262.151819
 30
0.0
 11
164.65687
 21
263.651819
 31
0.0
  0
LINE
  5
B1
330
A6
100
AcDbEntity
  8
LC-003-005-----0
 62
     7
370
    25
100
AcDbLine
 10
179.392282
 20
278.387231
 30
0.0
 11
180.892282
 21
279.887231
 31
0.0
  0
LINE
  5
B2
330
A6
100
AcDbEntity
  8
LC-003-005-----0
 62
     7
370
    25
100
AcDbLine
 10
160.328442
 20
262.151819
 30
0.0
 11
161.828442
 21
263.651819
 31
0.0
  0
LINE
  5
B3
330
A6
100
AcDbEntity
  8
LC-003-005-----0
 62
     7
370
    25
100
AcDbLine
 10
179.392282
 20
281.215658
 30
0.0
 11
180.892282
 21
282.715658
 31
0.0
  0
LINE
  5
B4
330
A6
100
AcDbEntity
  8
LC-003-005-----0
 62
     7
370
    25
100
AcDbLine
 10
157.500015
 20
262.151819
 30
0.0
 11
159.000015
 21
263.651819
 31
0.0
  0
LINE
  5
B5
330
A6
100
AcDbEntity
  8
LC-003-005-----0
 62
     7
370
    25
100
AcDbLine
 10
179.392282
 20
284.044085
 30
0.0
 11
180.892282
 21
285.544085
 31
0.0
  0
LINE
  5
B6
330
A6
100
AcDbEntity
  8
LC-003-005-----0
 62
     7
370
    25
100
AcDbLine
 10
154.671588
 20
262.151819
 30
0.0
 11
156.171588
 21
263.651819
 31
0.0
  0
LINE
  5
B7
330
A6
100
AcDbEntity
  8
LC-003-005-----0
 62
     7
370
    25
100
AcDbLine
 10
179.392282
 20
286.872512
 30
0.0
 11
180.892282
 21
288.372512
 31
0.0
  0
LINE
  5
B8
330
A6
100
AcDbEntity
  8
LC-003-005-----0
 62
     7
370
    25
100
AcDbLine
 10
151.843161
 20
262.151819
 30
0.0
 11
153.343161
 21
263.651819
 31
0.0
  0
LINE
  5
B9
330
A6
100
AcDbEntity
  8
LC-003-005-----0
 62
     7
370
    25
100
AcDbLine
 10
179.392282
 20
289.70094
 30
0.0
 11
180.892282
 21
291.20094
 31
0.0
  0
LINE
  5
BA
330
A6
100
AcDbEntity
  8
LC-003-005-----0
 62
     7
370
    25
100
AcDbLine
 10
149.014734
 20
262.151819
 30
0.0
 11
150.514734
 21
263.651819
 31
0.0
  0
LINE
  5
BB
330
A6
100
AcDbEntity
  8
LC-003-005-----0
 62
     7
370
    25
100
AcDbLine
 10
179.392282
 20
292.529367
 30
0.0
 11
180.892282
 21
294.029367
 31
0.0
  0
LINE
  5
BC
330
A6
100
AcDbEntity
  8
LC-003-005-----0
 62
     7
370
    25
100
AcDbLine
 10
146.186307
 20
262.151819
 30
0.0
 11
147.686307
 21
263.651819
 31
0.0
  0
LINE
  5
BD
330
A6
100
AcDbEntity
  8
LC-003-005-----0
 62
     7
370
    25
100
AcDbLine
 10
179.392282
 20
295.357794
 30
0.0
 11
180.892282
 21
296.857794
 31
0.0
  0
LINE
  5
BE
330
A6
100
AcDbEntity
  8
LC-003-005-----0
 62
     7
370
    25
100
AcDbLine
 10
143.35788
 20
262.151819
 30
0.0
 11
144.85788
 21
263.651819
 31
0.0
  0
LINE
  5
BF
330
A6
100
AcDbEntity
  8
LC-003-005-----0
 62
     7
370
    25
100
AcDbLine
 10
179.392282
 20
298.186221
 30
0.0
 11
180.892282
 21
299.686221
 31
0.0
  0
LINE
  5
C0
330
A6
100
AcDbEntity
  8
LC-003-005-----0
 62
     7
370
    25
100
AcDbLine
 10
140.529453
 20
262.151819
 30
0.0
 11
142.029453
 21
263.651819
 31
0.0
  0
LINE
  5
C1
330
A6
100
AcDbEntity
  8
LC-003-005-----0
 62
     7
370
    25
100
AcDbLine
 10
179.392282
 20
301.014648
 30
0.0
 11
180.892282
 21
302.514648
 31
0.0
  0
LINE
  5
C2
330
A6
100
AcDbEntity
  8
LC-003-005-----0
 62
     7
370
    25
100
AcDbLine
 10
137.701025
 20
262.151819
 30
0.0
 11
139.201025
 21
263.651819
 31
0.0
  0
LINE
  5
C3
330
A6
100
AcDbEntity
  8
LC-003-005-----0
 62
     7
370
    25
100
AcDbLine
 10
179.392282
 20
303.843075
 30
0.0
 11
180.892282
 21
305.343075
 31
0.0
  0
LINE
  5
C4
330
A6
100
AcDbEntity
  8
LC-003-005-----0
 62
     7
370
    25
100
AcDbLine
 10
134.872598
 20
262.151819
 30
0.0
 11
136.372598
 21
263.651819
 31
0.0
  0
LINE
  5
C5
330
A6
100
AcDbEntity
  8
LC-003-005-----0
 62
     7
370
    25
100
AcDbLine
 10
179.392281
 20
306.671502
 30
0.0
 11
180.892281
 21
308.171502
 31
0.0
  0
LINE
  5
C6
330
A6
100
AcDbEntity
  8
LC-003-005-----0
 62
     7
370
    25
100
AcDbLine
 10
132.044171
 20
262.151819
 30
0.0
 11
133.544171
 21
263.651819
 31
0.0
  0
LINE
  5
C7
330
A6
100
AcDbEntity
  8
LC-003-005-----0
 62
     7
370
    25
100
AcDbLine
 10
179.392281
 20
309.499929
 30
0.0
 11
180.892281
 21
310.999929
 31
0.0
  0
LINE
  5
C8
330
A6
100
AcDbEntity
  8
LC-003-005-----0
 62
     7
370
    25
100
AcDbLine
 10
129.215744
 20
262.151819
 30
0.0
 11
130.715744
 21
263.651819
 31
0.0
  0
LINE
  5
C9
330
A6
100
AcDbEntity
  8
LC-003-005-----0
 62
     7
370
    25
100
AcDbLine
 10
179.392281
 20
312.328356
 30
0.0
 11
180.892281
 21
313.828356
 31
0.0
  0
LINE
  5
CA
330
A6
100
AcDbEntity
  8
LC-003-005-----0
 62
     7
370
    25
100
AcDbLine
 10
126.387317
 20
262.151819
 30
0.0
 11
127.887317
 21
263.651819
 31
0.0
  0
LINE
  5
CB
330
A6
100
AcDbEntity
  8
LC-003-005-----0
 62
     7
370
    25
100
AcDbLine
 10
179.392281
 20
315.156783
 30
0.0
 11
180.892281
 21
316.656783
 31
0.0
  0
LINE
  5
CC
330
A6
100
AcDbEntity
  8
LC-003-005-----0
 62
     7
370
    25
100
AcDbLine
 10
123.783719
 20
262.376648
 30
0.0
 11
125.096247
 21
263.689176
 31
0.0
  0
LINE
  5
CD
330
A6
100
AcDbEntity
  8
LC-003-005-----0
 62
     7
370
    25
100
AcDbLine
 10
179.392281
 20
317.98521
 30
0.0
 11
180.892281
 21
319.48521
 31
0.0
  0
LINE
  5
CE
330
A6
100
AcDbEntity
  8
LC-003-005-----0
 62
     7
370
    25
100
AcDbLine
 10
121.666976
 20
263.088332
 30
0.0
 11
122.809282
 21
264.230638
 31
0.0
  0
LINE
  5
CF
330
A6
100
AcDbEntity
  8
LC-003-005-----0
 62
     7
370
    25
100
AcDbLine
 10
179.392281
 20
320.813638
 30
0.0
 11
183.84538
 21
325.266737
 31
0.0
  0
LINE
  5
D0
330
A6
100
AcDbEntity
  8
LC-003-005-----0
 62
     7
370
    25
100
AcDbLine
 10
119.897857
 20
264.147641
 30
0.0
 11
120.971349
 21
265.221132
 31
0.0
  0
LINE
  5
D1
330
A6
100
AcDbEntity
  8
LC-003-005-----0
 62
     7
370
    25
100
AcDbLine
 10
179.512931
 20
323.762715
 30
0.0
 11
187.709084
 21
331.958867
 31
0.0
  0
LINE
  5
D2
330
A6
100
AcDbEntity
  8
LC-003-005-----0
 62
     7
370
    25
100
AcDbLine
 10
118.423735
 20
265.501946
 30
0.0
 11
119.486493
 21
266.564703
 31
0.0
  0
LINE
  5
D3
330
A6
100
AcDbEntity
  8
LC-003-005-----0
 62
     7
370
    25
100
AcDbLine
 10
183.376634
 20
330.454845
 30
0.0
 11
188.892281
 21
335.970492
 31
0.0
  0
LINE
  5
D4
330
A6
100
AcDbEntity
  8
LC-003-005-----0
 62
     7
370
    25
100
AcDbLine
 10
117.236846
 20
267.143483
 30
0.0
 11
118.341633
 21
268.24827
 31
0.0
  0
LINE
  5
D5
330
A6
100
AcDbEntity
  8
LC-003-005-----0
 62
     7
370
    25
100
AcDbLine
 10
187.240338
 20
337.146975
 30
0.0
 11
188.892281
 21
338.798919
 31
0.0
  0
LINE
  5
D6
330
A6
100
AcDbEntity
  8
LC-003-005-----0
 62
     7
370
    25
100
AcDbLine
 10
116.368272
 20
269.103337
 30
0.0
 11
117.590736
 21
270.325801
 31
0.0
  0
LINE
  5
D7
330
A6
100
AcDbEntity
  8
LC-003-005-----0
 62
     7
370
    25
100
AcDbLine
 10
187.392281
 20
340.127346
 30
0.0
 11
188.892281
 21
341.627346
 31
0.0
  0
LINE
  5
D8
330
A6
100
AcDbEntity
  8
LC-003-005-----0
 62
     7
370
    25
100
AcDbLine
 10
188.916754
 20
341.651819
 30
0.0
 11
190.416754
 21
343.151819
 31
0.0
  0
LINE
  5
D9
330
A6
100
AcDbEntity
  8
LC-003-005-----0
 62
     7
370
    25
100
AcDbLine
 10
115.914978
 20
271.478469
 30
0.0
 11
117.392282
 21
272.955774
 31
0.0
  0
LINE
  5
DA
330
A6
100
AcDbEntity
  8
LC-003-005-----0
 62
     7
370
    25
100
AcDbLine
 10
187.392281
 20
342.955773
 30
0.0
 11
187.588327
 21
343.151819
 31
0.0
  0
LINE
  5
DB
330
A6
100
AcDbEntity
  8
LC-003-005-----0
 62
     7
370
    25
100
AcDbLine
 10
115.892282
 20
274.284201
 30
0.0
 11
117.392282
 21
275.784201
 31
0.0
  0
LINE
  5
DC
330
A6
100
AcDbEntity
  8
LC-003-005-----0
 62
     7
370
    25
100
AcDbLine
 10
115.892282
 20
277.112628
 30
0.0
 11
117.392282
 21
278.612628
 31
0.0
  0
LINE
  5
DD
330
A6
100
AcDbEntity
  8
LC-003-005-----0
 62
     7
370
    25
100
AcDbLine
 10
115.892282
 20
279.941055
 30
0.0
 11
117.392282
 21
281.441055
 31
0.0
  0
LINE
  5
DE
330
A6
100
AcDbEntity
  8
LC-003-005-----0
 62
     7
370
    25
100
AcDbLine
 10
115.892282
 20
282.769482
 30
0.0
 11
117.392282
 21
284.269482
 31
0.0
  0
LINE
  5
DF
330
A6
100
AcDbEntity
  8
LC-003-005-----0
 62
     7
370
    25
100
AcDbLine
 10
115.892282
 20
285.597909
 30
0.0
 11
117.392282
 21
287.097909
 31
0.0
  0
LINE
  5
E0
330
A6
100
AcDbEntity
  8
LC-003-005-----0
 62
     7
370
    25
100
AcDbLine
 10
115.892282
 20
288.426336
 30
0.0
 11
117.392282
 21
289.926336
 31
0.0
  0
LINE
  5
E1
330
A6
100
AcDbEntity
  8
LC-003-005-----0
 62
     7
370
    25
100
AcDbLine
 10
115.892282
 20
291.254763
 30
0.0
 11
117.392282
 21
292.754763
 31
0.0
  0
LINE
  5
E2
330
A6
100
AcDbEntity
  8
LC-003-005-----0
 62
     7
370
    25
100
AcDbLine
 10
115.892282
 20
294.08319
 30
0.0
 11
117.392282
 21
295.58319
 31
0.0
  0
LINE
  5
E3
330
A6
100
AcDbEntity
  8
LC-003-005-----0
 62
     7
370
    25
100
AcDbLine
 10
115.892282
 20
296.911618
 30
0.0
 11
117.392282
 21
298.411618
 31
0.0
  0
LINE
  5
E4
330
A6
100
AcDbEntity
  8
LC-003-005-----0
 62
     7
370
    25
100
AcDbLine
 10
115.892282
 20
299.740045
 30
0.0
 11
117.392282
 21
301.240045
 31
0.0
  0
LINE
  5
E5
330
A6
100
AcDbEntity
  8
LC-003-005-----0
 62
     7
370
    25
100
AcDbLine
 10
115.892282
 20
302.568472
 30
0.0
 11
117.392282
 21
304.068472
 31
0.0
  0
LINE
  5
E6
330
A6
100
AcDbEntity
  8
LC-003-005-----0
 62
     7
370
    25
100
AcDbLine
 10
115.892282
 20
305.396899
 30
0.0
 11
117.392281
 21
306.896899
 31
0.0
  0
LINE
  5
E7
330
A6
100
AcDbEntity
  8
LC-003-005-----0
 62
     7
370
    25
100
AcDbLine
 10
115.892281
 20
308.225326
 30
0.0
 11
117.392281
 21
309.725326
 31
0.0
  0
LINE
  5
E8
330
A6
100
AcDbEntity
  8
LC-003-005-----0
 62
     7
370
    25
100
AcDbLine
 10
115.892281
 20
311.053753
 30
0.0
 11
117.392281
 21
312.553753
 31
0.0
  0
LINE
  5
E9
330
A6
100
AcDbEntity
  8
LC-003-005-----0
 62
     7
370
    25
100
AcDbLine
 10
115.892281
 20
313.88218
 30
0.0
 11
117.392281
 21
315.38218
 31
0.0
  0
LINE
  5
EA
330
A6
100
AcDbEntity
  8
LC-003-005-----0
 62
     7
370
    25
100
AcDbLine
 10
115.892281
 20
316.710607
 30
0.0
 11
117.392281
 21
318.210607
 31
0.0
  0
LINE
  5
EB
330
A6
100
AcDbEntity
  8
LC-003-005-----0
 62
     7
370
    25
100
AcDbLine
 10
115.892281
 20
319.539034
 30
0.0
 11
117.392281
 21
321.039034
 31
0.0
  0
LINE
  5
EC
330
A6
100
AcDbEntity
  8
LC-003-005-----0
 62
     7
370
    25
100
AcDbLine
 10
115.892281
 20
322.367461
 30
0.0
 11
117.277452
 21
323.752632
 31
0.0
  0
LINE
  5
ED
330
A6
100
AcDbEntity
  8
LC-003-005-----0
 62
     7
370
    25
100
AcDbLine
 10
115.892281
 20
325.195889
 30
0.0
 11
116.242176
 21
325.545783
 31
0.0
  0
LINE
  5
EE
330
A6
100
AcDbEntity
  8
LC-003-005-----0
 62
     7
370
    25
100
AcDbLine
 10
107.892281
 20
336.994878
 30
0.0
 11
109.392281
 21
338.494878
 31
0.0
  0
LINE
  5
EF
330
A6
100
AcDbEntity
  8
LC-003-005-----0
 62
     7
370
    25
100
AcDbLine
 10
107.892281
 20
339.823305
 30
0.0
 11
109.392281
 21
341.323305
 31
0.0
  0
LINE
  5
F0
330
A6
100
AcDbEntity
  8
LC-003-005-----0
 62
     7
370
    25
100
AcDbLine
 10
106.892368
 20
341.651819
 30
0.0
 11
108.392368
 21
343.151819
 31
0.0
  0
ENDBLK
  5
A8
330
A6
100
AcDbEntity
  8
0
100
AcDbBlockEnd
  0
BLOCK
  5
111
330
110
100
AcDbEntity
  8
0
100
AcDbBlockBegin
  2
*X55
 70
     1
 71
     0
 10
0.0
 20
0.0
 30
0.0
  3
*X55
  1

  4
*X5
  0
LINE
  5
113
330
110
100
AcDbEntity
  8
LC-003-005-----0
 62
     7
370
    25
100
AcDbLine
 10
193.654633
 20
349.403375
 30
0.0
 11
191.775983
 21
351.282025
 31
0.0
  0
LINE
  5
114
330
110
100
AcDbEntity
  8
LC-003-005-----0
 62
     7
370
    25
100
AcDbLine
 10
191.577761
 20
348.65182
 30
0.0
 11
189.509756
 21
350.719825
 31
0.0
  0
LINE
  5
115
330
110
100
AcDbEntity
  8
LC-003-005-----0
 62
     7
370
    25
100
AcDbLine
 10
190.249334
 20
347.15182
 30
0.0
 11
187.877436
 21
349.523717
 31
0.0
  0
LINE
  5
116
330
110
100
AcDbEntity
  8
LC-003-005-----0
 62
     7
370
    25
100
AcDbLine
 10
188.904633
 20
345.668093
 30
0.0
 11
186.838176
 21
347.734551
 31
0.0
  0
LINE
  5
117
330
110
100
AcDbEntity
  8
LC-003-005-----0
 62
     7
370
    25
100
AcDbLine
 10
188.39248
 20
343.35182
 30
0.0
 11
186.234056
 21
345.510244
 31
0.0
  0
LINE
  5
118
330
110
100
AcDbEntity
  8
LC-003-005-----0
 62
     7
370
    25
100
AcDbLine
 10
187.015673
 20
341.900199
 30
0.0
 11
185.636339
 21
343.279533
 31
0.0
  0
LINE
  5
119
330
110
100
AcDbEntity
  8
LC-003-005-----0
 62
     7
370
    25
100
AcDbLine
 10
186.417956
 20
339.669489
 30
0.0
 11
185.038622
 21
341.048823
 31
0.0
  0
LINE
  5
11A
330
110
100
AcDbEntity
  8
LC-003-005-----0
 62
     7
370
    25
100
AcDbLine
 10
185.820239
 20
337.438779
 30
0.0
 11
184.440905
 21
338.818113
 31
0.0
  0
LINE
  5
11B
330
110
100
AcDbEntity
  8
LC-003-005-----0
 62
     7
370
    25
100
AcDbLine
 10
184.817309
 20
335.613282
 30
0.0
 11
183.312698
 21
337.117893
 31
0.0
  0
LINE
  5
11C
330
110
100
AcDbEntity
  8
LC-003-005-----0
 62
     7
370
    25
100
AcDbLine
 10
181.988882
 20
335.613282
 30
0.0
 11
180.488882
 21
337.113282
 31
0.0
  0
LINE
  5
11D
330
110
100
AcDbEntity
  8
LC-003-005-----0
 62
     7
370
    25
100
AcDbLine
 10
179.160455
 20
335.613282
 30
0.0
 11
178.032623
 21
336.741113
 31
0.0
  0
LINE
  5
11E
330
110
100
AcDbEntity
  8
LC-003-005-----0
 62
     7
370
    25
100
AcDbLine
 10
177.679318
 20
334.265991
 30
0.0
 11
176.618711
 21
335.326599
 31
0.0
  0
LINE
  5
11F
330
110
100
AcDbEntity
  8
LC-003-005-----0
 62
     7
370
    25
100
AcDbLine
 10
176.265449
 20
332.851434
 30
0.0
 11
175.204798
 21
333.912085
 31
0.0
  0
LINE
  5
120
330
110
100
AcDbEntity
  8
LC-003-005-----0
 62
     7
370
    25
100
AcDbLine
 10
174.851579
 20
331.436876
 30
0.0
 11
173.790885
 21
332.49757
 31
0.0
  0
LINE
  5
121
330
110
100
AcDbEntity
  8
LC-003-005-----0
 62
     7
370
    25
100
AcDbLine
 10
173.43771
 20
330.022318
 30
0.0
 11
172.376972
 21
331.083056
 31
0.0
  0
LINE
  5
122
330
110
100
AcDbEntity
  8
LC-003-005-----0
 62
     7
370
    25
100
AcDbLine
 10
172.02384
 20
328.607761
 30
0.0
 11
170.96306
 21
329.668542
 31
0.0
  0
LINE
  5
123
330
110
100
AcDbEntity
  8
LC-003-005-----0
 62
     7
370
    25
100
AcDbLine
 10
170.609971
 20
327.193203
 30
0.0
 11
169.549147
 21
328.254027
 31
0.0
  0
LINE
  5
124
330
110
100
AcDbEntity
  8
LC-003-005-----0
 62
     7
370
    25
100
AcDbLine
 10
169.495785
 20
325.478962
 30
0.0
 11
168.404633
 21
326.570114
 31
0.0
  0
LINE
  5
125
330
110
100
AcDbEntity
  8
LC-003-005-----0
 62
     7
370
    25
100
AcDbLine
 10
169.404633
 20
322.741686
 30
0.0
 11
168.404633
 21
323.741686
 31
0.0
  0
LINE
  5
126
330
110
100
AcDbEntity
  8
LC-003-005-----0
 62
     7
370
    25
100
AcDbLine
 10
169.404633
 20
319.913259
 30
0.0
 11
168.404633
 21
320.913259
 31
0.0
  0
LINE
  5
127
330
110
100
AcDbEntity
  8
LC-003-005-----0
 62
     7
370
    25
100
AcDbLine
 10
169.404633
 20
317.084832
 30
0.0
 11
168.404633
 21
318.084832
 31
0.0
  0
LINE
  5
128
330
110
100
AcDbEntity
  8
LC-003-005-----0
 62
     7
370
    25
100
AcDbLine
 10
169.404633
 20
314.256405
 30
0.0
 11
168.404633
 21
315.256405
 31
0.0
  0
LINE
  5
129
330
110
100
AcDbEntity
  8
LC-003-005-----0
 62
     7
370
    25
100
AcDbLine
 10
169.404633
 20
311.427978
 30
0.0
 11
168.404633
 21
312.427978
 31
0.0
  0
LINE
  5
12A
330
110
100
AcDbEntity
  8
LC-003-005-----0
 62
     7
370
    25
100
AcDbLine
 10
169.404633
 20
308.599551
 30
0.0
 11
168.404633
 21
309.599551
 31
0.0
  0
LINE
  5
12B
330
110
100
AcDbEntity
  8
LC-003-005-----0
 62
     7
370
    25
100
AcDbLine
 10
169.404634
 20
305.771123
 30
0.0
 11
168.404634
 21
306.771123
 31
0.0
  0
LINE
  5
12C
330
110
100
AcDbEntity
  8
LC-003-005-----0
 62
     7
370
    25
100
AcDbLine
 10
169.404634
 20
302.942696
 30
0.0
 11
168.404634
 21
303.942696
 31
0.0
  0
LINE
  5
12D
330
110
100
AcDbEntity
  8
LC-003-005-----0
 62
     7
370
    25
100
AcDbLine
 10
169.404634
 20
300.114269
 30
0.0
 11
168.404634
 21
301.114269
 31
0.0
  0
LINE
  5
12E
330
110
100
AcDbEntity
  8
LC-003-005-----0
 62
     7
370
    25
100
AcDbLine
 10
169.404634
 20
297.285842
 30
0.0
 11
168.404634
 21
298.285842
 31
0.0
  0
LINE
  5
12F
330
110
100
AcDbEntity
  8
LC-003-005-----0
 62
     7
370
    25
100
AcDbLine
 10
169.404634
 20
294.457415
 30
0.0
 11
168.404634
 21
295.457415
 31
0.0
  0
LINE
  5
130
330
110
100
AcDbEntity
  8
LC-003-005-----0
 62
     7
370
    25
100
AcDbLine
 10
169.404634
 20
291.628988
 30
0.0
 11
168.404634
 21
292.628988
 31
0.0
  0
LINE
  5
131
330
110
100
AcDbEntity
  8
LC-003-005-----0
 62
     7
370
    25
100
AcDbLine
 10
169.404634
 20
288.80056
 30
0.0
 11
168.404634
 21
289.80056
 31
0.0
  0
LINE
  5
132
330
110
100
AcDbEntity
  8
LC-003-005-----0
 62
     7
370
    25
100
AcDbLine
 10
169.404634
 20
285.972133
 30
0.0
 11
168.404634
 21
286.972133
 31
0.0
  0
LINE
  5
133
330
110
100
AcDbEntity
  8
LC-003-005-----0
 62
     7
370
    25
100
AcDbLine
 10
169.404634
 20
283.143706
 30
0.0
 11
168.404634
 21
284.143706
 31
0.0
  0
LINE
  5
134
330
110
100
AcDbEntity
  8
LC-003-005-----0
 62
     7
370
    25
100
AcDbLine
 10
169.404634
 20
280.315279
 30
0.0
 11
168.404634
 21
281.315279
 31
0.0
  0
LINE
  5
135
330
110
100
AcDbEntity
  8
LC-003-005-----0
 62
     7
370
    25
100
AcDbLine
 10
169.404634
 20
277.486852
 30
0.0
 11
168.404634
 21
278.486852
 31
0.0
  0
ENDBLK
  5
112
330
110
100
AcDbEntity
  8
0
100
AcDbBlockEnd
  0
BLOCK
  5
155
330
154
100
AcDbEntity
  8
0
100
AcDbBlockBegin
  2
*X66
 70
     1
 71
     0
 10
0.0
 20
0.0
 30
0.0
  3
*X66
  1

  4
*X6
  0
LINE
  5
157
330
154
100
AcDbEntity
  8
LC-003-005-----0
 62
     7
370
    25
100
AcDbLine
 10
109.576234
 20
348.62896
 30
0.0
 11
107.678348
 21
350.526846
 31
0.0
  0
LINE
  5
158
330
154
100
AcDbEntity
  8
LC-003-005-----0
 62
     7
370
    25
100
AcDbLine
 10
128.404634
 20
326.972133
 30
0.0
 11
118.263486
 21
337.113281
 31
0.0
  0
LINE
  5
159
330
154
100
AcDbEntity
  8
LC-003-005-----0
 62
     7
370
    25
100
AcDbLine
 10
110.834608
 20
344.542159
 30
0.0
 11
103.893826
 21
351.482941
 31
0.0
  0
LINE
  5
15A
330
154
100
AcDbEntity
  8
LC-003-005-----0
 62
     7
370
    25
100
AcDbLine
 10
128.404634
 20
324.143706
 30
0.0
 11
127.373722
 21
325.174618
 31
0.0
  0
LINE
  5
15B
330
154
100
AcDbEntity
  8
LC-003-005-----0
 62
     7
370
    25
100
AcDbLine
 10
116.935059
 20
335.613281
 30
0.0
 11
115.435059
 21
337.113281
 31
0.0
  0
LINE
  5
15C
330
154
100
AcDbEntity
  8
LC-003-005-----0
 62
     7
370
    25
100
AcDbLine
 10
111.869884
 20
340.678456
 30
0.0
 11
109.480808
 21
343.067532
 31
0.0
  0
LINE
  5
15D
330
154
100
AcDbEntity
  8
LC-003-005-----0
 62
     7
370
    25
100
AcDbLine
 10
109.196521
 20
343.351819
 30
0.0
 11
107.821388
 21
344.726952
 31
0.0
  0
LINE
  5
15E
330
154
100
AcDbEntity
  8
LC-003-005-----0
 62
     7
370
    25
100
AcDbLine
 10
103.896521
 20
348.651819
 30
0.0
 11
103.154633
 21
349.393707
 31
0.0
  0
LINE
  5
15F
330
154
100
AcDbEntity
  8
LC-003-005-----0
 62
     7
370
    25
100
AcDbLine
 10
128.404634
 20
321.315279
 30
0.0
 11
127.404634
 21
322.315279
 31
0.0
  0
LINE
  5
160
330
154
100
AcDbEntity
  8
LC-003-005-----0
 62
     7
370
    25
100
AcDbLine
 10
114.106632
 20
335.613281
 30
0.0
 11
110.516084
 21
339.203829
 31
0.0
  0
LINE
  5
161
330
154
100
AcDbEntity
  8
LC-003-005-----0
 62
     7
370
    25
100
AcDbLine
 10
128.404634
 20
318.486852
 30
0.0
 11
127.404634
 21
319.486852
 31
0.0
  0
LINE
  5
162
330
154
100
AcDbEntity
  8
LC-003-005-----0
 62
     7
370
    25
100
AcDbLine
 10
128.404634
 20
315.658425
 30
0.0
 11
127.404634
 21
316.658425
 31
0.0
  0
LINE
  5
163
330
154
100
AcDbEntity
  8
LC-003-005-----0
 62
     7
370
    25
100
AcDbLine
 10
128.404634
 20
312.829998
 30
0.0
 11
127.404634
 21
313.829998
 31
0.0
  0
LINE
  5
164
330
154
100
AcDbEntity
  8
LC-003-005-----0
 62
     7
370
    25
100
AcDbLine
 10
128.404634
 20
310.001571
 30
0.0
 11
127.404634
 21
311.001571
 31
0.0
  0
LINE
  5
165
330
154
100
AcDbEntity
  8
LC-003-005-----0
 62
     7
370
    25
100
AcDbLine
 10
128.404634
 20
307.173143
 30
0.0
 11
127.404634
 21
308.173143
 31
0.0
  0
LINE
  5
166
330
154
100
AcDbEntity
  8
LC-003-005-----0
 62
     7
370
    25
100
AcDbLine
 10
128.404634
 20
304.344716
 30
0.0
 11
127.404634
 21
305.344716
 31
0.0
  0
LINE
  5
167
330
154
100
AcDbEntity
  8
LC-003-005-----0
 62
     7
370
    25
100
AcDbLine
 10
128.404634
 20
301.516289
 30
0.0
 11
127.404634
 21
302.516289
 31
0.0
  0
LINE
  5
168
330
154
100
AcDbEntity
  8
LC-003-005-----0
 62
     7
370
    25
100
AcDbLine
 10
128.404634
 20
298.687862
 30
0.0
 11
127.404634
 21
299.687862
 31
0.0
  0
LINE
  5
169
330
154
100
AcDbEntity
  8
LC-003-005-----0
 62
     7
370
    25
100
AcDbLine
 10
128.404634
 20
295.859435
 30
0.0
 11
127.404634
 21
296.859435
 31
0.0
  0
LINE
  5
16A
330
154
100
AcDbEntity
  8
LC-003-005-----0
 62
     7
370
    25
100
AcDbLine
 10
128.404634
 20
293.031008
 30
0.0
 11
127.404634
 21
294.031008
 31
0.0
  0
LINE
  5
16B
330
154
100
AcDbEntity
  8
LC-003-005-----0
 62
     7
370
    25
100
AcDbLine
 10
128.404634
 20
290.202581
 30
0.0
 11
127.404634
 21
291.202581
 31
0.0
  0
LINE
  5
16C
330
154
100
AcDbEntity
  8
LC-003-005-----0
 62
     7
370
    25
100
AcDbLine
 10
128.404634
 20
287.374154
 30
0.0
 11
127.404634
 21
288.374154
 31
0.0
  0
LINE
  5
16D
330
154
100
AcDbEntity
  8
LC-003-005-----0
 62
     7
370
    25
100
AcDbLine
 10
128.404634
 20
284.545726
 30
0.0
 11
127.404634
 21
285.545726
 31
0.0
  0
LINE
  5
16E
330
154
100
AcDbEntity
  8
LC-003-005-----0
 62
     7
370
    25
100
AcDbLine
 10
128.404634
 20
281.717299
 30
0.0
 11
127.404634
 21
282.717299
 31
0.0
  0
LINE
  5
16F
330
154
100
AcDbEntity
  8
LC-003-005-----0
 62
     7
370
    25
100
AcDbLine
 10
128.404634
 20
278.888872
 30
0.0
 11
127.404634
 21
279.888872
 31
0.0
  0
LINE
  5
170
330
154
100
AcDbEntity
  8
LC-003-005-----0
 62
     7
370
    25
100
AcDbLine
 10
128.353259
 20
276.111819
 30
0.0
 11
127.404634
 21
277.060445
 31
0.0
  0
ENDBLK
  5
156
330
154
100
AcDbEntity
  8
0
100
AcDbBlockEnd
  0
BLOCK
  5
18C
330
18B
100
AcDbEntity
  8
0
100
AcDbBlockBegin
  2
*X77
 70
     1
 71
     0
 10
0.0
 20
0.0
 30
0.0
  3
*X77
  1

  4
*X7
  0
LINE
  5
18E
330
18B
100
AcDbEntity
  8
LC-003-005-----0
  6
DASHED
 62
     7
370
    25
100
AcDbLine
 10
190.438666
 20
344.13406
 30
0.0
 11
188.927927
 21
345.644799
 31
0.0
  0
LINE
  5
18F
330
18B
100
AcDbEntity
  8
LC-003-005-----0
 62
     7
370
    25
100
AcDbLine
 10
107.759857
 20
344.788482
 30
0.0
 11
106.08235
 21
346.46599
 31
0.0
  0
ENDBLK
  5
18D
330
18B
100
AcDbEntity
  8
0
100
AcDbBlockEnd
  0
BLOCK
  5
1BA
330
1B9
100
AcDbEntity
  8
0
100
AcDbBlockBegin
  2
*X88
 70
     1
 71
     0
 10
0.0
 20
0.0
 30
0.0
  3
*X88
  1

  4
*X8
  0
LINE
  5
1BC
330
1B9
100
AcDbEntity
  8
LC-003-005-----0
 62
     7
370
    25
100
AcDbLine
 10
189.704633
 20
251.529998
 30
0.0
 11
191.582812
 21
249.651819
 31
0.0
  0
LINE
  5
1BD
330
1B9
100
AcDbEntity
  8
LC-003-005-----0
 62
     7
370
    25
100
AcDbLine
 10
189.704633
 20
254.358425
 30
0.0
 11
192.772055
 21
251.291004
 31
0.0
  0
LINE
  5
1BE
330
1B9
100
AcDbEntity
  8
LC-003-005-----0
 62
     7
370
    25
100
AcDbLine
 10
189.704633
 20
257.186852
 30
0.0
 11
193.369772
 21
253.521714
 31
0.0
  0
LINE
  5
1BF
330
1B9
100
AcDbEntity
  8
LC-003-005-----0
 62
     7
370
    25
100
AcDbLine
 10
189.704633
 20
260.015279
 30
0.0
 11
193.404633
 21
256.315279
 31
0.0
  0
LINE
  5
1C0
330
1B9
100
AcDbEntity
  8
LC-003-005-----0
 62
     7
370
    25
100
AcDbLine
 10
189.704633
 20
262.843706
 30
0.0
 11
193.404633
 21
259.143706
 31
0.0
  0
LINE
  5
1C1
330
1B9
100
AcDbEntity
  8
LC-003-005-----0
 62
     7
370
    25
100
AcDbLine
 10
189.704633
 20
265.672134
 30
0.0
 11
193.404633
 21
261.972134
 31
0.0
  0
LINE
  5
1C2
330
1B9
100
AcDbEntity
  8
LC-003-005-----0
 62
     7
370
    25
100
AcDbLine
 10
189.704633
 20
268.500561
 30
0.0
 11
193.404633
 21
264.800561
 31
0.0
  0
LINE
  5
1C3
330
1B9
100
AcDbEntity
  8
LC-003-005-----0
 62
     7
370
    25
100
AcDbLine
 10
189.704633
 20
271.328988
 30
0.0
 11
193.404633
 21
267.628988
 31
0.0
  0
LINE
  5
1C4
330
1B9
100
AcDbEntity
  8
LC-003-005-----0
 62
     7
370
    25
100
AcDbLine
 10
189.704633
 20
274.157415
 30
0.0
 11
193.404633
 21
270.457415
 31
0.0
  0
LINE
  5
1C5
330
1B9
100
AcDbEntity
  8
LC-003-005-----0
 62
     7
370
    25
100
AcDbLine
 10
189.704633
 20
276.985842
 30
0.0
 11
193.404633
 21
273.285842
 31
0.0
  0
LINE
  5
1C6
330
1B9
100
AcDbEntity
  8
LC-003-005-----0
 62
     7
370
    25
100
AcDbLine
 10
189.704633
 20
279.814269
 30
0.0
 11
193.404633
 21
276.114269
 31
0.0
  0
LINE
  5
1C7
330
1B9
100
AcDbEntity
  8
LC-003-005-----0
 62
     7
370
    25
100
AcDbLine
 10
189.704633
 20
282.642696
 30
0.0
 11
193.404633
 21
278.942696
 31
0.0
  0
LINE
  5
1C8
330
1B9
100
AcDbEntity
  8
LC-003-005-----0
 62
     7
370
    25
100
AcDbLine
 10
189.704633
 20
285.471123
 30
0.0
 11
193.404633
 21
281.771123
 31
0.0
  0
LINE
  5
1C9
330
1B9
100
AcDbEntity
  8
LC-003-005-----0
 62
     7
370
    25
100
AcDbLine
 10
189.704633
 20
288.299551
 30
0.0
 11
193.404633
 21
284.599551
 31
0.0
  0
LINE
  5
1CA
330
1B9
100
AcDbEntity
  8
LC-003-005-----0
 62
     7
370
    25
100
AcDbLine
 10
189.704633
 20
291.127978
 30
0.0
 11
193.404633
 21
287.427978
 31
0.0
  0
LINE
  5
1CB
330
1B9
100
AcDbEntity
  8
LC-003-005-----0
 62
     7
370
    25
100
AcDbLine
 10
189.704633
 20
293.956405
 30
0.0
 11
193.404633
 21
290.256405
 31
0.0
  0
LINE
  5
1CC
330
1B9
100
AcDbEntity
  8
LC-003-005-----0
 62
     7
370
    25
100
AcDbLine
 10
189.704633
 20
296.784832
 30
0.0
 11
193.404633
 21
293.084832
 31
0.0
  0
LINE
  5
1CD
330
1B9
100
AcDbEntity
  8
LC-003-005-----0
 62
     7
370
    25
100
AcDbLine
 10
189.704633
 20
299.613259
 30
0.0
 11
193.404633
 21
295.913259
 31
0.0
  0
LINE
  5
1CE
330
1B9
100
AcDbEntity
  8
LC-003-005-----0
 62
     7
370
    25
100
AcDbLine
 10
189.704633
 20
302.441686
 30
0.0
 11
193.404633
 21
298.741686
 31
0.0
  0
LINE
  5
1CF
330
1B9
100
AcDbEntity
  8
LC-003-005-----0
 62
     7
370
    25
100
AcDbLine
 10
189.704633
 20
305.270113
 30
0.0
 11
193.404633
 21
301.570113
 31
0.0
  0
LINE
  5
1D0
330
1B9
100
AcDbEntity
  8
LC-003-005-----0
 62
     7
370
    25
100
AcDbLine
 10
189.704633
 20
308.09854
 30
0.0
 11
193.404633
 21
304.39854
 31
0.0
  0
LINE
  5
1D1
330
1B9
100
AcDbEntity
  8
LC-003-005-----0
 62
     7
370
    25
100
AcDbLine
 10
189.704633
 20
310.926968
 30
0.0
 11
193.404633
 21
307.226968
 31
0.0
  0
LINE
  5
1D2
330
1B9
100
AcDbEntity
  8
LC-003-005-----0
 62
     7
370
    25
100
AcDbLine
 10
189.704633
 20
313.755395
 30
0.0
 11
193.404633
 21
310.055395
 31
0.0
  0
LINE
  5
1D3
330
1B9
100
AcDbEntity
  8
LC-003-005-----0
 62
     7
370
    25
100
AcDbLine
 10
189.704633
 20
316.583822
 30
0.0
 11
193.404633
 21
312.883822
 31
0.0
  0
LINE
  5
1D4
330
1B9
100
AcDbEntity
  8
LC-003-005-----0
 62
     7
370
    25
100
AcDbLine
 10
189.704633
 20
319.412249
 30
0.0
 11
193.404633
 21
315.712249
 31
0.0
  0
LINE
  5
1D5
330
1B9
100
AcDbEntity
  8
LC-003-005-----0
 62
     7
370
    25
100
AcDbLine
 10
189.704633
 20
322.240676
 30
0.0
 11
193.404633
 21
318.540676
 31
0.0
  0
LINE
  5
1D6
330
1B9
100
AcDbEntity
  8
LC-003-005-----0
 62
     7
370
    25
100
AcDbLine
 10
189.704633
 20
325.069103
 30
0.0
 11
193.404633
 21
321.369103
 31
0.0
  0
LINE
  5
1D7
330
1B9
100
AcDbEntity
  8
LC-003-005-----0
 62
     7
370
    25
100
AcDbLine
 10
189.704633
 20
327.89753
 30
0.0
 11
193.404633
 21
324.19753
 31
0.0
  0
LINE
  5
1D8
330
1B9
100
AcDbEntity
  8
LC-003-005-----0
 62
     7
370
    25
100
AcDbLine
 10
189.704633
 20
330.725957
 30
0.0
 11
193.404633
 21
327.025957
 31
0.0
  0
LINE
  5
1D9
330
1B9
100
AcDbEntity
  8
LC-003-005-----0
 62
     7
370
    25
100
AcDbLine
 10
189.704633
 20
333.554385
 30
0.0
 11
193.404633
 21
329.854385
 31
0.0
  0
LINE
  5
1DA
330
1B9
100
AcDbEntity
  8
LC-003-005-----0
 62
     7
370
    25
100
AcDbLine
 10
189.704633
 20
336.382812
 30
0.0
 11
193.404633
 21
332.682812
 31
0.0
  0
LINE
  5
1DB
330
1B9
100
AcDbEntity
  8
LC-003-005-----0
 62
     7
370
    25
100
AcDbLine
 10
189.704633
 20
339.211239
 30
0.0
 11
193.404633
 21
335.511239
 31
0.0
  0
LINE
  5
1DC
330
1B9
100
AcDbEntity
  8
LC-003-005-----0
 62
     7
370
    25
100
AcDbLine
 10
190.09248
 20
341.651819
 30
0.0
 11
193.404633
 21
338.339666
 31
0.0
  0
LINE
  5
1DD
330
1B9
100
AcDbEntity
  8
LC-003-005-----0
 62
     7
370
    25
100
AcDbLine
 10
191.154633
 20
343.418093
 30
0.0
 11
194.404633
 21
340.168093
 31
0.0
  0
LINE
  5
1DE
330
1B9
100
AcDbEntity
  8
LC-003-005-----0
 62
     7
370
    25
100
AcDbLine
 10
191.154633
 20
346.24652
 30
0.0
 11
194.404633
 21
342.99652
 31
0.0
  0
LINE
  5
1DF
330
1B9
100
AcDbEntity
  8
LC-003-005-----0
 62
     7
370
    25
100
AcDbLine
 10
191.577762
 20
348.651819
 30
0.0
 11
195.199533
 21
345.030048
 31
0.0
  0
LINE
  5
1E0
330
1B9
100
AcDbEntity
  8
LC-003-005-----0
 62
     7
370
    25
100
AcDbLine
 10
193.904634
 20
349.153374
 30
0.0
 11
196.234809
 21
346.823199
 31
0.0
  0
LINE
  5
1E1
330
1B9
100
AcDbEntity
  8
LC-003-005-----0
 62
     7
370
    25
100
AcDbLine
 10
193.905835
 20
351.9806
 30
0.0
 11
196.904634
 21
348.981802
 31
0.0
  0
LINE
  5
1E2
330
1B9
100
AcDbEntity
  8
LC-003-005-----0
 62
     7
370
    25
100
AcDbLine
 10
194.741011
 20
353.973851
 30
0.0
 11
196.904634
 21
351.810229
 31
0.0
  0
LINE
  5
1E3
330
1B9
100
AcDbEntity
  8
LC-003-005-----0
 62
     7
370
    25
100
AcDbLine
 10
196.646782
 20
354.896507
 30
0.0
 11
199.236436
 21
352.306853
 31
0.0
  0
LINE
  5
1E4
330
1B9
100
AcDbEntity
  8
LC-003-005-----0
 62
     7
370
    25
100
AcDbLine
 10
199.051239
 20
355.320478
 30
0.0
 11
201.640893
 21
352.730824
 31
0.0
  0
LINE
  5
1E5
330
1B9
100
AcDbEntity
  8
LC-003-005-----0
 62
     7
370
    25
100
AcDbLine
 10
200.904633
 20
356.29551
 30
0.0
 11
203.404633
 21
353.79551
 31
0.0
  0
LINE
  5
1E6
330
1B9
100
AcDbEntity
  8
LC-003-005-----0
 62
     7
370
    25
100
AcDbLine
 10
200.07838
 20
359.950191
 30
0.0
 11
203.404633
 21
356.623937
 31
0.0
  0
LINE
  5
1E7
330
1B9
100
AcDbEntity
  8
LC-003-005-----0
 62
     7
370
    25
100
AcDbLine
 10
201.009691
 20
361.847307
 30
0.0
 11
203.404633
 21
359.452364
 31
0.0
  0
LINE
  5
1E8
330
1B9
100
AcDbEntity
  8
LC-003-005-----0
 62
     7
370
    25
100
AcDbLine
 10
201.904633
 20
363.780791
 30
0.0
 11
203.404633
 21
362.280791
 31
0.0
  0
ENDBLK
  5
1BB
330
1B9
100
AcDbEntity
  8
0
100
AcDbBlockEnd
  0
BLOCK
  5
1EB
330
1EA
100
AcDbEntity
  8
0
100
AcDbBlockBegin
  2
*X99
 70
     1
 71
     0
 10
0.0
 20
0.0
 30
0.0
  3
*X99
  1

  4
*X9
  0
LINE
  5
1ED
330
1EA
100
AcDbEntity
  8
LC-003-005-----0
 62
     7
370
    25
100
AcDbLine
 10
103.651567
 20
252.730251
 30
0.0
 11
106.729999
 21
249.651819
 31
0.0
  0
LINE
  5
1EE
330
1EA
100
AcDbEntity
  8
LC-003-005-----0
 62
     7
370
    25
100
AcDbLine
 10
103.404633
 20
255.805611
 30
0.0
 11
107.104633
 21
252.105611
 31
0.0
  0
LINE
  5
1EF
330
1EA
100
AcDbEntity
  8
LC-003-005-----0
 62
     7
370
    25
100
AcDbLine
 10
103.404633
 20
258.634038
 30
0.0
 11
107.104633
 21
254.934038
 31
0.0
  0
LINE
  5
1F0
330
1EA
100
AcDbEntity
  8
LC-003-005-----0
 62
     7
370
    25
100
AcDbLine
 10
103.404633
 20
261.462466
 30
0.0
 11
107.104633
 21
257.762466
 31
0.0
  0
LINE
  5
1F1
330
1EA
100
AcDbEntity
  8
LC-003-005-----0
 62
     7
370
    25
100
AcDbLine
 10
103.404633
 20
264.290893
 30
0.0
 11
107.104633
 21
260.590893
 31
0.0
  0
LINE
  5
1F2
330
1EA
100
AcDbEntity
  8
LC-003-005-----0
 62
     7
370
    25
100
AcDbLine
 10
103.404633
 20
267.11932
 30
0.0
 11
107.104633
 21
263.41932
 31
0.0
  0
LINE
  5
1F3
330
1EA
100
AcDbEntity
  8
LC-003-005-----0
 62
     7
370
    25
100
AcDbLine
 10
103.404633
 20
269.947747
 30
0.0
 11
107.104633
 21
266.247747
 31
0.0
  0
LINE
  5
1F4
330
1EA
100
AcDbEntity
  8
LC-003-005-----0
 62
     7
370
    25
100
AcDbLine
 10
103.404633
 20
272.776174
 30
0.0
 11
107.104633
 21
269.076174
 31
0.0
  0
LINE
  5
1F5
330
1EA
100
AcDbEntity
  8
LC-003-005-----0
 62
     7
370
    25
100
AcDbLine
 10
103.404633
 20
275.604601
 30
0.0
 11
107.104633
 21
271.904601
 31
0.0
  0
LINE
  5
1F6
330
1EA
100
AcDbEntity
  8
LC-003-005-----0
 62
     7
370
    25
100
AcDbLine
 10
103.404633
 20
278.433028
 30
0.0
 11
107.104633
 21
274.733028
 31
0.0
  0
LINE
  5
1F7
330
1EA
100
AcDbEntity
  8
LC-003-005-----0
 62
     7
370
    25
100
AcDbLine
 10
103.404633
 20
281.261455
 30
0.0
 11
107.104633
 21
277.561455
 31
0.0
  0
LINE
  5
1F8
330
1EA
100
AcDbEntity
  8
LC-003-005-----0
 62
     7
370
    25
100
AcDbLine
 10
103.404633
 20
284.089883
 30
0.0
 11
107.104633
 21
280.389883
 31
0.0
  0
LINE
  5
1F9
330
1EA
100
AcDbEntity
  8
LC-003-005-----0
 62
     7
370
    25
100
AcDbLine
 10
103.404633
 20
286.91831
 30
0.0
 11
107.104633
 21
283.21831
 31
0.0
  0
LINE
  5
1FA
330
1EA
100
AcDbEntity
  8
LC-003-005-----0
 62
     7
370
    25
100
AcDbLine
 10
103.404633
 20
289.746737
 30
0.0
 11
107.104633
 21
286.046737
 31
0.0
  0
LINE
  5
1FB
330
1EA
100
AcDbEntity
  8
LC-003-005-----0
 62
     7
370
    25
100
AcDbLine
 10
103.404633
 20
292.575164
 30
0.0
 11
107.104633
 21
288.875164
 31
0.0
  0
LINE
  5
1FC
330
1EA
100
AcDbEntity
  8
LC-003-005-----0
 62
     7
370
    25
100
AcDbLine
 10
103.404633
 20
295.403591
 30
0.0
 11
107.104633
 21
291.703591
 31
0.0
  0
LINE
  5
1FD
330
1EA
100
AcDbEntity
  8
LC-003-005-----0
 62
     7
370
    25
100
AcDbLine
 10
103.404633
 20
298.232018
 30
0.0
 11
107.104633
 21
294.532018
 31
0.0
  0
LINE
  5
1FE
330
1EA
100
AcDbEntity
  8
LC-003-005-----0
 62
     7
370
    25
100
AcDbLine
 10
103.404633
 20
301.060445
 30
0.0
 11
107.104633
 21
297.360445
 31
0.0
  0
LINE
  5
1FF
330
1EA
100
AcDbEntity
  8
LC-003-005-----0
 62
     7
370
    25
100
AcDbLine
 10
103.404633
 20
303.888872
 30
0.0
 11
107.104633
 21
300.188872
 31
0.0
  0
LINE
  5
200
330
1EA
100
AcDbEntity
  8
LC-003-005-----0
 62
     7
370
    25
100
AcDbLine
 10
103.404633
 20
306.7173
 30
0.0
 11
107.104633
 21
303.0173
 31
0.0
  0
LINE
  5
201
330
1EA
100
AcDbEntity
  8
LC-003-005-----0
 62
     7
370
    25
100
AcDbLine
 10
103.404633
 20
309.545727
 30
0.0
 11
107.104633
 21
305.845727
 31
0.0
  0
LINE
  5
202
330
1EA
100
AcDbEntity
  8
LC-003-005-----0
 62
     7
370
    25
100
AcDbLine
 10
103.404633
 20
312.374154
 30
0.0
 11
107.104633
 21
308.674154
 31
0.0
  0
LINE
  5
203
330
1EA
100
AcDbEntity
  8
LC-003-005-----0
 62
     7
370
    25
100
AcDbLine
 10
103.404633
 20
315.202581
 30
0.0
 11
107.104633
 21
311.502581
 31
0.0
  0
LINE
  5
204
330
1EA
100
AcDbEntity
  8
LC-003-005-----0
 62
     7
370
    25
100
AcDbLine
 10
103.404633
 20
318.031008
 30
0.0
 11
107.104633
 21
314.331008
 31
0.0
  0
LINE
  5
205
330
1EA
100
AcDbEntity
  8
LC-003-005-----0
 62
     7
370
    25
100
AcDbLine
 10
103.404633
 20
320.859435
 30
0.0
 11
107.104633
 21
317.159435
 31
0.0
  0
LINE
  5
206
330
1EA
100
AcDbEntity
  8
LC-003-005-----0
 62
     7
370
    25
100
AcDbLine
 10
103.404633
 20
323.687862
 30
0.0
 11
107.104633
 21
319.987862
 31
0.0
  0
LINE
  5
207
330
1EA
100
AcDbEntity
  8
LC-003-005-----0
 62
     7
370
    25
100
AcDbLine
 10
103.404633
 20
326.516289
 30
0.0
 11
107.104633
 21
322.816289
 31
0.0
  0
LINE
  5
208
330
1EA
100
AcDbEntity
  8
LC-003-005-----0
 62
     7
370
    25
100
AcDbLine
 10
103.404633
 20
329.344717
 30
0.0
 11
107.104633
 21
325.644717
 31
0.0
  0
LINE
  5
209
330
1EA
100
AcDbEntity
  8
LC-003-005-----0
 62
     7
370
    25
100
AcDbLine
 10
103.404633
 20
332.173144
 30
0.0
 11
107.104633
 21
328.473144
 31
0.0
  0
LINE
  5
20A
330
1EA
100
AcDbEntity
  8
LC-003-005-----0
 62
     7
370
    25
100
AcDbLine
 10
103.404633
 20
335.001571
 30
0.0
 11
107.104633
 21
331.301571
 31
0.0
  0
LINE
  5
20B
330
1EA
100
AcDbEntity
  8
LC-003-005-----0
 62
     7
370
    25
100
AcDbLine
 10
103.404633
 20
337.829998
 30
0.0
 11
107.104633
 21
334.129998
 31
0.0
  0
LINE
  5
20C
330
1EA
100
AcDbEntity
  8
LC-003-005-----0
 62
     7
370
    25
100
AcDbLine
 10
102.404633
 20
341.658425
 30
0.0
 11
107.104633
 21
336.958425
 31
0.0
  0
LINE
  5
20D
330
1EA
100
AcDbEntity
  8
LC-003-005-----0
 62
     7
370
    25
100
AcDbLine
 10
93.404633
 20
353.486852
 30
0.0
 11
93.944937
 21
352.946549
 31
0.0
  0
LINE
  5
20E
330
1EA
100
AcDbEntity
  8
LC-003-005-----0
 62
     7
370
    25
100
AcDbLine
 10
101.265901
 20
345.625585
 30
0.0
 11
107.104633
 21
339.786852
 31
0.0
  0
LINE
  5
20F
330
1EA
100
AcDbEntity
  8
LC-003-005-----0
 62
     7
370
    25
100
AcDbLine
 10
93.404633
 20
356.315279
 30
0.0
 11
97.378857
 21
352.341056
 31
0.0
  0
LINE
  5
210
330
1EA
100
AcDbEntity
  8
LC-003-005-----0
 62
     7
370
    25
100
AcDbLine
 10
99.904633
 20
349.815279
 30
0.0
 11
105.654633
 21
344.065279
 31
0.0
  0
LINE
  5
211
330
1EA
100
AcDbEntity
  8
LC-003-005-----0
 62
     7
370
    25
100
AcDbLine
 10
93.404633
 20
359.143706
 30
0.0
 11
95.904633
 21
356.643706
 31
0.0
  0
LINE
  5
212
330
1EA
100
AcDbEntity
  8
LC-003-005-----0
 62
     7
370
    25
100
AcDbLine
 10
97.114367
 20
355.433973
 30
0.0
 11
102.904633
 21
349.643707
 31
0.0
  0
LINE
  5
213
330
1EA
100
AcDbEntity
  8
LC-003-005-----0
 62
     7
370
    25
100
AcDbLine
 10
103.896521
 20
348.651819
 30
0.0
 11
105.654633
 21
346.893706
 31
0.0
  0
LINE
  5
214
330
1EA
100
AcDbEntity
  8
LC-003-005-----0
 62
     7
370
    25
100
AcDbLine
 10
93.404633
 20
361.972134
 30
0.0
 11
96.114791
 21
359.261976
 31
0.0
  0
LINE
  5
215
330
1EA
100
AcDbEntity
  8
LC-003-005-----0
 62
     7
370
    25
100
AcDbLine
 10
100.551683
 20
354.825084
 30
0.0
 11
102.834024
 21
352.542744
 31
0.0
  0
LINE
  5
216
330
1EA
100
AcDbEntity
  8
LC-003-005-----0
 62
     7
370
    25
100
AcDbLine
 10
93.553375
 20
364.651819
 30
0.0
 11
94.904633
 21
363.300561
 31
0.0
  0
ENDBLK
  5
1EC
330
1EA
100
AcDbEntity
  8
0
100
AcDbBlockEnd
  0
BLOCK
  5
270
330
26F
100
AcDbEntity
  8
0
100
AcDbBlockBegin
  2
*X1010
 70
     1
 71
     0
 10
0.0
 20
0.0
 30
0.0
  3
*X1010
  1

  4
*X10
  0
LINE
  5
272
330
26F
100
AcDbEntity
  8
LC-003-005-----0
 62
     7
370
    25
100
AcDbLine
 10
103.404633
 20
326.516289
 30
0.0
 11
102.269932
 21
327.650991
 31
0.0
  0
LINE
  5
273
330
26F
100
AcDbEntity
  8
LC-003-005-----0
  6
DASHED
 62
     7
370
    25
100
AcDbLine
 10
103.404633
 20
320.859435
 30
0.0
 11
102.404633
 21
321.859435
 31
0.0
  0
LINE
  5
274
330
26F
100
AcDbEntity
  8
LC-003-005-----0
  6
DASHED
 62
     7
370
    25
100
AcDbLine
 10
98.130478
 20
326.13359
 30
0.0
 11
96.613078
 21
327.650991
 31
0.0
  0
LINE
  5
275
330
26F
100
AcDbEntity
  8
LC-003-005-----0
  6
DASHED
 62
     7
370
    25
100
AcDbLine
 10
103.404633
 20
318.031008
 30
0.0
 11
102.404633
 21
319.031008
 31
0.0
  0
LINE
  5
276
330
26F
100
AcDbEntity
  8
LC-003-005-----0
  6
DASHED
 62
     7
370
    25
100
AcDbLine
 10
94.765285
 20
326.670357
 30
0.0
 11
94.422458
 21
327.013184
 31
0.0
  0
LINE
  5
277
330
26F
100
AcDbEntity
  8
LC-003-005-----0
 62
     7
370
    25
100
AcDbLine
 10
103.404633
 20
312.374154
 30
0.0
 11
100.627797
 21
315.150991
 31
0.0
  0
LINE
  5
278
330
26F
100
AcDbEntity
  8
LC-003-005-----0
 62
     7
370
    25
100
AcDbLine
 10
103.404633
 20
309.545727
 30
0.0
 11
102.404633
 21
310.545727
 31
0.0
  0
LINE
  5
279
330
26F
100
AcDbEntity
  8
LC-003-005-----0
 62
     7
370
    25
100
AcDbLine
 10
99.540019
 20
313.410341
 30
0.0
 11
97.79937
 21
315.150991
 31
0.0
  0
LINE
  5
27A
330
26F
100
AcDbEntity
  8
LC-003-005-----0
  6
DASHED
 62
     7
370
    25
100
AcDbLine
 10
103.404633
 20
303.888872
 30
0.0
 11
102.404633
 21
304.888872
 31
0.0
  0
LINE
  5
27B
330
26F
100
AcDbEntity
  8
LC-003-005-----0
  6
DASHED
 62
     7
370
    25
100
AcDbLine
 10
103.404633
 20
301.060445
 30
0.0
 11
101.814088
 21
302.650991
 31
0.0
  0
LINE
  5
27C
330
26F
100
AcDbEntity
  8
LC-003-005-----0
 62
     7
370
    25
100
AcDbLine
 10
103.404633
 20
295.403591
 30
0.0
 11
102.404633
 21
296.403591
 31
0.0
  0
LINE
  5
27D
330
26F
100
AcDbEntity
  8
LC-003-005-----0
 62
     7
370
    25
100
AcDbLine
 10
97.588848
 20
301.219376
 30
0.0
 11
96.157234
 21
302.650991
 31
0.0
  0
LINE
  5
27E
330
26F
100
AcDbEntity
  8
LC-003-005-----0
 62
     7
370
    25
100
AcDbLine
 10
103.404633
 20
292.575164
 30
0.0
 11
102.404633
 21
293.575164
 31
0.0
  0
LINE
  5
27F
330
26F
100
AcDbEntity
  8
LC-003-005-----0
  6
DASHED
 62
     7
370
    25
100
AcDbLine
 10
103.404633
 20
286.91831
 30
0.0
 11
100.171953
 21
290.150991
 31
0.0
  0
LINE
  5
280
330
26F
100
AcDbEntity
  8
LC-003-005-----0
  6
DASHED
 62
     7
370
    25
100
AcDbLine
 10
103.404633
 20
284.089883
 30
0.0
 11
102.404633
 21
285.089883
 31
0.0
  0
LINE
  5
281
330
26F
100
AcDbEntity
  8
LC-003-005-----0
  6
DASHED
 62
     7
370
    25
100
AcDbLine
 10
98.998389
 20
288.496127
 30
0.0
 11
97.343525
 21
290.150991
 31
0.0
  0
LINE
  5
282
330
26F
100
AcDbEntity
  8
LC-003-005-----0
 62
     7
370
    25
100
AcDbLine
 10
103.404633
 20
278.433028
 30
0.0
 11
102.404633
 21
279.433028
 31
0.0
  0
LINE
  5
283
330
26F
100
AcDbEntity
  8
LC-003-005-----0
 62
     7
370
    25
100
AcDbLine
 10
103.404633
 20
275.604601
 30
0.0
 11
101.358244
 21
277.650991
 31
0.0
  0
LINE
  5
284
330
26F
100
AcDbEntity
  8
LC-003-005-----0
  6
DASHED
 62
     7
370
    25
100
AcDbLine
 10
103.404633
 20
269.947747
 30
0.0
 11
102.404633
 21
270.947747
 31
0.0
  0
LINE
  5
285
330
26F
100
AcDbEntity
  8
LC-003-005-----0
  6
DASHED
 62
     7
370
    25
100
AcDbLine
 10
97.047219
 20
276.305162
 30
0.0
 11
95.70139
 21
277.650991
 31
0.0
  0
LINE
  5
286
330
26F
100
AcDbEntity
  8
LC-003-005-----0
  6
DASHED
 62
     7
370
    25
100
AcDbLine
 10
103.404633
 20
267.11932
 30
0.0
 11
102.404633
 21
268.11932
 31
0.0
  0
LINE
  5
287
330
26F
100
AcDbEntity
  8
LC-003-005-----0
 62
     7
370
    25
100
AcDbLine
 10
103.404633
 20
261.462466
 30
0.0
 11
102.278646
 21
262.588453
 31
0.0
  0
LINE
  5
288
330
26F
100
AcDbEntity
  8
LC-003-005-----0
 62
     7
370
    25
100
AcDbLine
 10
101.890536
 20
262.976563
 30
0.0
 11
99.716108
 21
265.150991
 31
0.0
  0
LINE
  5
289
330
26F
100
AcDbEntity
  8
LC-003-005-----0
 62
     7
370
    25
100
AcDbLine
 10
103.404633
 20
258.634038
 30
0.0
 11
102.404633
 21
259.634038
 31
0.0
  0
LINE
  5
28A
330
26F
100
AcDbEntity
  8
LC-003-005-----0
 62
     7
370
    25
100
AcDbLine
 10
98.456759
 20
263.581913
 30
0.0
 11
96.887681
 21
265.150991
 31
0.0
  0
LINE
  5
28B
330
26F
100
AcDbEntity
  8
LC-003-005-----0
  6
DASHED
 62
     7
370
    25
100
AcDbLine
 10
103.651264
 20
252.730554
 30
0.0
 11
102.404633
 21
253.977184
 31
0.0
  0
LINE
  5
28C
330
26F
100
AcDbEntity
  8
LC-003-005-----0
  6
DASHED
 62
     7
370
    25
100
AcDbLine
 10
103.9024
 20
249.650991
 30
0.0
 11
100.9024
 21
252.650991
 31
0.0
  0
LINE
  5
28D
330
26F
100
AcDbEntity
  8
LC-003-005-----0
 62
     7
370
    25
100
AcDbLine
 10
96.505589
 20
251.390948
 30
0.0
 11
95.245546
 21
252.650991
 31
0.0
  0
ENDBLK
  5
271
330
26F
100
AcDbEntity
  8
0
100
AcDbBlockEnd
  0
BLOCK
  5
290
330
28F
100
AcDbEntity
  8
0
100
AcDbBlockBegin
  2
*X1111
 70
     1
 71
     0
 10
0.0
 20
0.0
 30
0.0
  3
*X1111
  1

  4
*X11
  0
LINE
  5
292
330
28F
100
AcDbEntity
  8
LC-003-005-----0
  6
DASHED
 62
     7
370
    25
100
AcDbLine
 10
199.779517
 20
326.307929
 30
0.0
 11
198.436455
 21
327.650991
 31
0.0
  0
LINE
  5
293
330
28F
100
AcDbEntity
  8
LC-003-005-----0
  6
DASHED
 62
     7
370
    25
100
AcDbLine
 10
197.337817
 20
325.921201
 30
0.0
 11
195.608027
 21
327.650991
 31
0.0
  0
LINE
  5
294
330
28F
100
AcDbEntity
  8
LC-003-005-----0
 62
     7
370
    25
100
AcDbLine
 10
194.404633
 20
323.19753
 30
0.0
 11
193.404633
 21
324.19753
 31
0.0
  0
LINE
  5
295
330
28F
100
AcDbEntity
  8
LC-003-005-----0
 62
     7
370
    25
100
AcDbLine
 10
200.803608
 20
313.970129
 30
0.0
 11
199.622746
 21
315.150991
 31
0.0
  0
LINE
  5
296
330
28F
100
AcDbEntity
  8
LC-003-005-----0
 62
     7
370
    25
100
AcDbLine
 10
194.404633
 20
320.369103
 30
0.0
 11
193.404633
 21
321.369103
 31
0.0
  0
LINE
  5
297
330
28F
100
AcDbEntity
  8
LC-003-005-----0
  6
DASHED
 62
     7
370
    25
100
AcDbLine
 10
195.920208
 20
313.196674
 30
0.0
 11
193.404633
 21
315.712249
 31
0.0
  0
LINE
  5
298
330
28F
100
AcDbEntity
  8
LC-003-005-----0
  6
DASHED
 62
     7
370
    25
100
AcDbLine
 10
194.404633
 20
311.883822
 30
0.0
 11
193.404633
 21
312.883822
 31
0.0
  0
LINE
  5
299
330
28F
100
AcDbEntity
  8
LC-003-005-----0
 62
     7
370
    25
100
AcDbLine
 10
199.386
 20
301.245602
 30
0.0
 11
197.98061
 21
302.650991
 31
0.0
  0
LINE
  5
29A
330
28F
100
AcDbEntity
  8
LC-003-005-----0
 62
     7
370
    25
100
AcDbLine
 10
194.404633
 20
306.226968
 30
0.0
 11
193.404633
 21
307.226968
 31
0.0
  0
LINE
  5
29B
330
28F
100
AcDbEntity
  8
LC-003-005-----0
 62
     7
370
    25
100
AcDbLine
 10
196.9443
 20
300.858874
 30
0.0
 11
195.152183
 21
302.650991
 31
0.0
  0
LINE
  5
29C
330
28F
100
AcDbEntity
  8
LC-003-005-----0
 62
     7
370
    25
100
AcDbLine
 10
194.404633
 20
303.39854
 30
0.0
 11
193.404633
 21
304.39854
 31
0.0
  0
LINE
  5
29D
330
28F
100
AcDbEntity
  8
LC-003-005-----0
  6
DASHED
 62
     7
370
    25
100
AcDbLine
 10
202.396262
 20
289.750057
 30
0.0
 11
202.005241
 21
290.141078
 31
0.0
  0
LINE
  5
29E
330
28F
100
AcDbEntity
  8
LC-003-005-----0
  6
DASHED
 62
     7
370
    25
100
AcDbLine
 10
194.404633
 20
297.741686
 30
0.0
 11
193.404633
 21
298.741686
 31
0.0
  0
LINE
  5
29F
330
28F
100
AcDbEntity
  8
LC-003-005-----0
  6
DASHED
 62
     7
370
    25
100
AcDbLine
 10
200.410091
 20
288.907802
 30
0.0
 11
199.166902
 21
290.150991
 31
0.0
  0
LINE
  5
2A0
330
28F
100
AcDbEntity
  8
LC-003-005-----0
  6
DASHED
 62
     7
370
    25
100
AcDbLine
 10
194.404633
 20
294.913259
 30
0.0
 11
193.404633
 21
295.913259
 31
0.0
  0
LINE
  5
2A1
330
28F
100
AcDbEntity
  8
LC-003-005-----0
 62
     7
370
    25
100
AcDbLine
 10
195.526691
 20
288.134347
 30
0.0
 11
193.404633
 21
290.256405
 31
0.0
  0
LINE
  5
2A2
330
28F
100
AcDbEntity
  8
LC-003-005-----0
 62
     7
370
    25
100
AcDbLine
 10
194.404633
 20
286.427978
 30
0.0
 11
193.404633
 21
287.427978
 31
0.0
  0
LINE
  5
2A3
330
28F
100
AcDbEntity
  8
LC-003-005-----0
  6
DASHED
 62
     7
370
    25
100
AcDbLine
 10
198.992482
 20
276.183275
 30
0.0
 11
197.524766
 21
277.650991
 31
0.0
  0
LINE
  5
2A4
330
28F
100
AcDbEntity
  8
LC-003-005-----0
  6
DASHED
 62
     7
370
    25
100
AcDbLine
 10
194.404633
 20
280.771123
 30
0.0
 11
193.404633
 21
281.771123
 31
0.0
  0
LINE
  5
2A5
330
28F
100
AcDbEntity
  8
LC-003-005-----0
  6
DASHED
 62
     7
370
    25
100
AcDbLine
 10
196.550783
 20
275.796547
 30
0.0
 11
193.404633
 21
278.942696
 31
0.0
  0
LINE
  5
2A6
330
28F
100
AcDbEntity
  8
LC-003-005-----0
 62
     7
370
    25
100
AcDbLine
 10
202.320043
 20
264.370432
 30
0.0
 11
201.539485
 21
265.150991
 31
0.0
  0
LINE
  5
2A7
330
28F
100
AcDbEntity
  8
LC-003-005-----0
 62
     7
370
    25
100
AcDbLine
 10
194.404633
 20
272.285842
 30
0.0
 11
193.404633
 21
273.285842
 31
0.0
  0
LINE
  5
2A8
330
28F
100
AcDbEntity
  8
LC-003-005-----0
 62
     7
370
    25
100
AcDbLine
 10
200.016574
 20
263.845475
 30
0.0
 11
198.711058
 21
265.150991
 31
0.0
  0
LINE
  5
2A9
330
28F
100
AcDbEntity
  8
LC-003-005-----0
 62
     7
370
    25
100
AcDbLine
 10
194.404633
 20
269.457415
 30
0.0
 11
193.404633
 21
270.457415
 31
0.0
  0
LINE
  5
2AA
330
28F
100
AcDbEntity
  8
LC-003-005-----0
  6
DASHED
 62
     7
370
    25
100
AcDbLine
 10
195.138663
 20
263.066531
 30
0.0
 11
193.404633
 21
264.800561
 31
0.0
  0
LINE
  5
2AB
330
28F
100
AcDbEntity
  8
LC-003-005-----0
  6
DASHED
 62
     7
370
    25
100
AcDbLine
 10
194.404633
 20
260.972134
 30
0.0
 11
193.404633
 21
261.972134
 31
0.0
  0
LINE
  5
2AC
330
28F
100
AcDbEntity
  8
LC-003-005-----0
 62
     7
370
    25
100
AcDbLine
 10
198.598965
 20
251.120948
 30
0.0
 11
197.068922
 21
252.650991
 31
0.0
  0
LINE
  5
2AD
330
28F
100
AcDbEntity
  8
LC-003-005-----0
 62
     7
370
    25
100
AcDbLine
 10
194.404633
 20
255.315279
 30
0.0
 11
193.404633
 21
256.315279
 31
0.0
  0
LINE
  5
2AE
330
28F
100
AcDbEntity
  8
LC-003-005-----0
 62
     7
370
    25
100
AcDbLine
 10
196.157265
 20
250.73422
 30
0.0
 11
193.369947
 21
253.521539
 31
0.0
  0
ENDBLK
  5
291
330
28F
100
AcDbEntity
  8
0
100
AcDbBlockEnd
  0
BLOCK
  5
2BE
330
2B4
100
AcDbEntity
  8
0
100
AcDbBlockBegin
  2
*D12
 70
     1
 71
     0
 10
0.0
 20
0.0
 30
0.0
  3
*D12
  1

  0
LINE
  5
2B5
330
2B4
100
AcDbEntity
  8
LC-004-003-----0
 62
     2
370
    -2
100
AcDbLine
 10
94.404633
 20
252.19022
 30
0.0
 11
94.404633
 21
128.586
 31
0.0
  0
LINE
  5
2B6
330
2B4
100
AcDbEntity
  8
LC-004-003-----0
 62
     2
370
    -2
100
AcDbLine
 10
202.404635
 20
252.190221
 30
0.0
 11
202.404635
 21
128.586
 31
0.0
  0
LINE
  5
2B7
330
2B4
100
AcDbEntity
  8
LC-004-003-----0
 62
     2
370
    -2
100
AcDbLine
 10
122.404633
 20
132.186
 30
0.0
 11
174.404635
 21
132.186
 31
0.0
  0
SOLID
  5
2B8
330
2B4
100
AcDbEntity
  8
LC-004-003-----0
 62
     2
100
AcDbTrace
 10
122.404633
 20
136.852667
 30
0.0
 11
122.404633
 21
127.519333
 31
0.0
 12
94.404633
 22
132.186
 32
0.0
 13
94.404633
 23
132.186
 33
0.0
  0
SOLID
  5
2B9
330
2B4
100
AcDbEntity
  8
LC-004-003-----0
 62
     2
100
AcDbTrace
 10
174.404635
 20
127.519333
 30
0.0
 11
174.404635
 21
136.852667
 31
0.0
 12
202.404635
 22
132.186
 32
0.0
 13
202.404635
 23
132.186
 33
0.0
  0
MTEXT
  5
2BA
330
2B4
100
AcDbEntity
  8
LC-004-003-----0
 62
     2
100
AcDbMText
 10
148.404634
 20
162.986
 30
0.0
 40
28.0
 41
0.0
 71
     5
 72
     1
  1
%%c\A1;108
  7
LCTX15-400-0-0pDIN-Schrift
 73
     1
 44
1.0
  0
POINT
  5
2BB
330
2B4
100
AcDbEntity
  8
Defpoints
 62
     0
100
AcDbPoint
 10
94.404633
 20
252.19022
 30
0.0
  0
POINT
  5
2BC
330
2B4
100
AcDbEntity
  8
Defpoints
 62
     0
100
AcDbPoint
 10
202.404635
 20
252.190221
 30
0.0
  0
POINT
  5
2BD
330
2B4
100
AcDbEntity
  8
Defpoints
 62
     0
100
AcDbPoint
 10
202.404635
 20
132.186
 30
0.0
  0
ENDBLK
  5
2BF
330
2B4
100
AcDbEntity
  8
0
100
AcDbBlockEnd
  0
BLOCK
  5
2CB
330
2C1
100
AcDbEntity
  8
0
100
AcDbBlockBegin
  2
*D13
 70
     1
 71
     0
 10
0.0
 20
0.0
 30
0.0
  3
*D13
  1

  0
LINE
  5
2C2
330
2C1
100
AcDbEntity
  8
LC-004-003-----0
 62
     2
370
    -2
100
AcDbLine
 10
89.009633
 20
373.396205
 30
0.0
 11
89.009633
 21
395.6
 31
0.0
  0
LINE
  5
2C3
330
2C1
100
AcDbEntity
  8
LC-004-003-----0
 62
     2
370
    -2
100
AcDbLine
 10
207.809633
 20
373.396205
 30
0.0
 11
207.809633
 21
395.6
 31
0.0
  0
LINE
  5
2C4
330
2C1
100
AcDbEntity
  8
LC-004-003-----0
 62
     2
370
    -2
100
AcDbLine
 10
117.009633
 20
392.0
 30
0.0
 11
179.809633
 21
392.0
 31
0.0
  0
SOLID
  5
2C5
330
2C1
100
AcDbEntity
  8
LC-004-003-----0
 62
     2
100
AcDbTrace
 10
117.009633
 20
396.666667
 30
0.0
 11
117.009633
 21
387.333333
 31
0.0
 12
89.009633
 22
392.0
 32
0.0
 13
89.009633
 23
392.0
 33
0.0
  0
SOLID
  5
2C6
330
2C1
100
AcDbEntity
  8
LC-004-003-----0
 62
     2
100
AcDbTrace
 10
179.809633
 20
387.333333
 30
0.0
 11
179.809633
 21
396.666667
 31
0.0
 12
207.809633
 22
392.0
 32
0.0
 13
207.809633
 23
392.0
 33
0.0
  0
MTEXT
  5
2C7
330
2C1
100
AcDbEntity
  8
LC-004-003-----0
 62
     2
100
AcDbMText
 10
148.409633
 20
422.8
 30
0.0
 40
28.0
 41
0.0
 71
     5
 72
     1
  1
\A1;120
  7
LCTX15-400-0-0pDIN-Schrift
 73
     1
 44
1.0
  0
POINT
  5
2C8
330
2C1
100
AcDbEntity
  8
Defpoints
 62
     0
100
AcDbPoint
 10
89.009633
 20
373.396205
 30
0.0
  0
POINT
  5
2C9
330
2C1
100
AcDbEntity
  8
Defpoints
 62
     0
100
AcDbPoint
 10
207.809633
 20
373.396205
 30
0.0
  0
POINT
  5
2CA
330
2C1
100
AcDbEntity
  8
Defpoints
 62
     0
100
AcDbPoint
 10
207.809633
 20
392.0
 30
0.0
  0
ENDBLK
  5
2CC
330
2C1
100
AcDbEntity
  8
0
100
AcDbBlockEnd
  0
BLOCK
  5
2F0
330
2E6
100
AcDbEntity
  8
0
100
AcDbBlockBegin
  2
*D14
 70
     1
 71
     0
 10
0.0
 20
0.0
 30
0.0
  3
*D14
  1

  0
LINE
  5
2E7
330
2E6
100
AcDbEntity
  8
LC-004-003-----0
 62
     2
370
    -2
100
AcDbLine
 10
103.404633
 20
254.02959
 30
0.0
 11
103.404633
 21
201.400581
 31
0.0
  0
LINE
  5
2E8
330
2E6
100
AcDbEntity
  8
LC-004-003-----0
 62
     2
370
    -2
100
AcDbLine
 10
193.404633
 20
254.02959
 30
0.0
 11
193.404633
 21
201.400581
 31
0.0
  0
LINE
  5
2E9
330
2E6
100
AcDbEntity
  8
LC-004-003-----0
 62
     2
370
    -2
100
AcDbLine
 10
131.404633
 20
205.000581
 30
0.0
 11
165.404633
 21
205.000581
 31
0.0
  0
SOLID
  5
2EA
330
2E6
100
AcDbEntity
  8
LC-004-003-----0
 62
     2
100
AcDbTrace
 10
131.404633
 20
209.667248
 30
0.0
 11
131.404633
 21
200.333915
 31
0.0
 12
103.404633
 22
205.000581
 32
0.0
 13
103.404633
 23
205.000581
 33
0.0
  0
SOLID
  5
2EB
330
2E6
100
AcDbEntity
  8
LC-004-003-----0
 62
     2
100
AcDbTrace
 10
165.404633
 20
200.333915
 30
0.0
 11
165.404633
 21
209.667248
 31
0.0
 12
193.404633
 22
205.000581
 32
0.0
 13
193.404633
 23
205.000581
 33
0.0
  0
MTEXT
  5
2EC
330
2E6
100
AcDbEntity
  8
LC-004-003-----0
 62
     2
100
AcDbMText
 10
148.404633
 20
235.800581
 30
0.0
 40
28.0
 41
0.0
 71
     5
 72
     1
  1
%%c\A1;90
  7
LCTX15-400-0-0pDIN-Schrift
 73
     1
 44
1.0
  0
POINT
  5
2ED
330
2E6
100
AcDbEntity
  8
Defpoints
 62
     0
100
AcDbPoint
 10
103.404633
 20
254.02959
 30
0.0
  0
POINT
  5
2EE
330
2E6
100
AcDbEntity
  8
Defpoints
 62
     0
100
AcDbPoint
 10
193.404633
 20
254.02959
 30
0.0
  0
POINT
  5
2EF
330
2E6
100
AcDbEntity
  8
Defpoints
 62
     0
100
AcDbPoint
 10
193.404633
 20
205.000581
 30
0.0
  0
ENDBLK
  5
2F1
330
2E6
100
AcDbEntity
  8
0
100
AcDbBlockEnd
  0
BLOCK
  5
2FD
330
2F3
100
AcDbEntity
  8
0
100
AcDbBlockBegin
  2
*D15
 70
     1
 71
     0
 10
0.0
 20
0.0
 30
0.0
  3
*D15
  1

  0
LINE
  5
2F4
330
2F3
100
AcDbEntity
  8
LC-004-003-----0
 62
     2
370
    -2
100
AcDbLine
 10
207.109633
 20
374.096205
 30
0.0
 11
316.248066
 21
374.096205
 31
0.0
  0
LINE
  5
2F5
330
2F3
100
AcDbEntity
  8
LC-004-003-----0
 62
     2
370
    -2
100
AcDbLine
 10
194.404633
 20
249.650991
 30
0.0
 11
316.248066
 21
249.650991
 31
0.0
  0
LINE
  5
2F6
330
2F3
100
AcDbEntity
  8
LC-004-003-----0
 62
     2
370
    -2
100
AcDbLine
 10
312.648066
 20
346.096205
 30
0.0
 11
312.648066
 21
277.650991
 31
0.0
  0
SOLID
  5
2F7
330
2F3
100
AcDbEntity
  8
LC-004-003-----0
 62
     2
100
AcDbTrace
 10
317.314733
 20
346.096205
 30
0.0
 11
307.9814
 21
346.096205
 31
0.0
 12
312.648066
 22
374.096205
 32
0.0
 13
312.648066
 23
374.096205
 33
0.0
  0
SOLID
  5
2F8
330
2F3
100
AcDbEntity
  8
LC-004-003-----0
 62
     2
100
AcDbTrace
 10
307.9814
 20
277.650991
 30
0.0
 11
317.314733
 21
277.650991
 31
0.0
 12
312.648066
 22
249.650991
 32
0.0
 13
312.648066
 23
249.650991
 33
0.0
  0
MTEXT
  5
2F9
330
2F3
100
AcDbEntity
  8
LC-004-003-----0
 62
     2
100
AcDbMText
 10
281.848066
 20
315.732
 30
0.0
 40
28.0
 41
0.0
 71
     5
 72
     1
  1
\A1;124
  7
LCTX15-400-0-0pDIN-Schrift
 11
6.123031769111886E-17
 21
1.0
 31
0.0
 73
     1
 44
1.0
  0
POINT
  5
2FA
330
2F3
100
AcDbEntity
  8
Defpoints
 62
     0
100
AcDbPoint
 10
207.109633
 20
374.096205
 30
0.0
  0
POINT
  5
2FB
330
2F3
100
AcDbEntity
  8
Defpoints
 62
     0
100
AcDbPoint
 10
194.404633
 20
249.650991
 30
0.0
  0
POINT
  5
2FC
330
2F3
100
AcDbEntity
  8
Defpoints
 62
     0
100
AcDbPoint
 10
312.648066
 20
249.650991
 30
0.0
  0
ENDBLK
  5
2FE
330
2F3
100
AcDbEntity
  8
0
100
AcDbBlockEnd
  0
BLOCK
  5
361
330
360
100
AcDbEntity
  8
0
100
AcDbBlockBegin
  2
*X1216
 70
     1
 71
     0
 10
0.0
 20
0.0
 30
0.0
  3
*X1216
  1

  4
*X12
  0
LINE
  5
363
330
360
100
AcDbEntity
  8
LC-003-005-----0
 62
     7
370
    25
100
AcDbLine
 10
99.052482
 20
362.096205
 30
0.0
 11
100.380491
 21
363.424214
 31
0.0
  0
LINE
  5
364
330
360
100
AcDbEntity
  8
LC-003-005-----0
 62
     7
370
    25
100
AcDbLine
 10
98.054633
 20
363.926783
 30
0.0
 11
100.456548
 21
366.328698
 31
0.0
  0
LINE
  5
365
330
360
100
AcDbEntity
  8
LC-003-005-----0
 62
     7
370
    25
100
AcDbLine
 10
96.895628
 20
365.596205
 30
0.0
 11
100.532605
 21
369.233181
 31
0.0
  0
LINE
  5
366
330
360
100
AcDbEntity
  8
LC-003-005-----0
 62
     7
370
    25
100
AcDbLine
 10
95.104633
 20
366.633637
 30
0.0
 11
100.608661
 21
372.137665
 31
0.0
  0
LINE
  5
367
330
360
100
AcDbEntity
  8
LC-003-005-----0
 62
     7
370
    25
100
AcDbLine
 10
94.738774
 20
369.096205
 30
0.0
 11
99.564382
 21
373.921813
 31
0.0
  0
LINE
  5
368
330
360
100
AcDbEntity
  8
LC-003-005-----0
 62
     7
370
    25
100
AcDbLine
 10
91.910347
 20
369.096205
 30
0.0
 11
96.80813
 21
373.993988
 31
0.0
  0
LINE
  5
369
330
360
100
AcDbEntity
  8
LC-003-005-----0
 62
     7
370
    25
100
AcDbLine
 10
90.904633
 20
370.918918
 30
0.0
 11
94.051878
 21
374.066163
 31
0.0
  0
ENDBLK
  5
362
330
360
100
AcDbEntity
  8
0
100
AcDbBlockEnd
  0
BLOCK
  5
36C
330
36B
100
AcDbEntity
  8
0
100
AcDbBlockBegin
  2
*X1317
 70
     1
 71
     0
 10
0.0
 20
0.0
 30
0.0
  3
*X1317
  1

  4
*X13
  0
LINE
  5
36E
330
36B
100
AcDbEntity
  8
LC-003-005-----0
 62
     7
370
    25
100
AcDbLine
 10
113.194618
 20
362.096205
 30
0.0
 11
113.358933
 21
362.26052
 31
0.0
  0
LINE
  5
36F
330
36B
100
AcDbEntity
  8
LC-003-005-----0
 62
     7
370
    25
100
AcDbLine
 10
110.366191
 20
362.096205
 30
0.0
 11
113.43499
 21
365.165004
 31
0.0
  0
LINE
  5
370
330
36B
100
AcDbEntity
  8
LC-003-005-----0
 62
     7
370
    25
100
AcDbLine
 10
107.948007
 20
362.506449
 30
0.0
 11
113.511046
 21
368.069487
 31
0.0
  0
LINE
  5
371
330
36B
100
AcDbEntity
  8
LC-003-005-----0
 62
     7
370
    25
100
AcDbLine
 10
107.875832
 20
365.262701
 30
0.0
 11
113.587103
 21
370.973971
 31
0.0
  0
LINE
  5
372
330
36B
100
AcDbEntity
  8
LC-003-005-----0
 62
     7
370
    25
100
AcDbLine
 10
107.803657
 20
368.018953
 30
0.0
 11
113.191043
 21
373.406338
 31
0.0
  0
LINE
  5
373
330
36B
100
AcDbEntity
  8
LC-003-005-----0
 62
     7
370
    25
100
AcDbLine
 10
107.731482
 20
370.775205
 30
0.0
 11
110.589391
 21
373.633113
 31
0.0
  0
ENDBLK
  5
36D
330
36B
100
AcDbEntity
  8
0
100
AcDbBlockEnd
  0
BLOCK
  5
376
330
375
100
AcDbEntity
  8
0
100
AcDbBlockBegin
  2
*X1418
 70
     1
 71
     0
 10
0.0
 20
0.0
 30
0.0
  3
*X1418
  1

  4
*X14
  0
LINE
  5
378
330
375
100
AcDbEntity
  8
LC-003-005-----0
 62
     7
370
    25
100
AcDbLine
 10
124.508327
 20
362.096205
 30
0.0
 11
126.927229
 21
364.515107
 31
0.0
  0
LINE
  5
379
330
375
100
AcDbEntity
  8
LC-003-005-----0
 62
     7
370
    25
100
AcDbLine
 10
121.679899
 20
362.096205
 30
0.0
 11
127.003285
 21
367.419591
 31
0.0
  0
LINE
  5
37A
330
375
100
AcDbEntity
  8
LC-003-005-----0
 62
     7
370
    25
100
AcDbLine
 10
120.89629
 20
364.141023
 30
0.0
 11
127.079342
 21
370.324074
 31
0.0
  0
LINE
  5
37B
330
375
100
AcDbEntity
  8
LC-003-005-----0
 62
     7
370
    25
100
AcDbLine
 10
120.824115
 20
366.897275
 30
0.0
 11
126.847754
 21
372.920914
 31
0.0
  0
LINE
  5
37C
330
375
100
AcDbEntity
  8
LC-003-005-----0
 62
     7
370
    25
100
AcDbLine
 10
120.75194
 20
369.653527
 30
0.0
 11
124.370651
 21
373.272238
 31
0.0
  0
LINE
  5
37D
330
375
100
AcDbEntity
  8
LC-003-005-----0
 62
     7
370
    25
100
AcDbLine
 10
120.684485
 20
372.414499
 30
0.0
 11
121.60968
 21
373.339694
 31
0.0
  0
ENDBLK
  5
377
330
375
100
AcDbEntity
  8
0
100
AcDbBlockEnd
  0
BLOCK
  5
398
330
397
100
AcDbEntity
  8
0
100
AcDbBlockBegin
  2
*X1519
 70
     1
 71
     0
 10
0.0
 20
0.0
 30
0.0
  3
*X1519
  1

  4
*X15
  0
LINE
  5
39A
330
397
100
AcDbEntity
  8
LC-003-005-----0
 62
     7
370
    25
100
AcDbLine
 10
113.194618
 20
362.096205
 30
0.0
 11
113.358933
 21
362.26052
 31
0.0
  0
LINE
  5
39B
330
397
100
AcDbEntity
  8
LC-003-005-----0
 62
     7
370
    25
100
AcDbLine
 10
110.366191
 20
362.096205
 30
0.0
 11
113.43499
 21
365.165004
 31
0.0
  0
LINE
  5
39C
330
397
100
AcDbEntity
  8
LC-003-005-----0
 62
     7
370
    25
100
AcDbLine
 10
107.948007
 20
362.506449
 30
0.0
 11
113.511046
 21
368.069487
 31
0.0
  0
LINE
  5
39D
330
397
100
AcDbEntity
  8
LC-003-005-----0
 62
     7
370
    25
100
AcDbLine
 10
107.875832
 20
365.262701
 30
0.0
 11
113.587103
 21
370.973971
 31
0.0
  0
LINE
  5
39E
330
397
100
AcDbEntity
  8
LC-003-005-----0
 62
     7
370
    25
100
AcDbLine
 10
107.803657
 20
368.018953
 30
0.0
 11
113.191043
 21
373.406338
 31
0.0
  0
LINE
  5
39F
330
397
100
AcDbEntity
  8
LC-003-005-----0
 62
     7
370
    25
100
AcDbLine
 10
107.731482
 20
370.775205
 30
0.0
 11
110.589391
 21
373.633113
 31
0.0
  0
ENDBLK
  5
399
330
397
100
AcDbEntity
  8
0
100
AcDbBlockEnd
  0
BLOCK
  5
3A2
330
3A1
100
AcDbEntity
  8
0
100
AcDbBlockBegin
  2
*X1620
 70
     1
 71
     0
 10
0.0
 20
0.0
 30
0.0
  3
*X1620
  1

  4
*X16
  0
LINE
  5
3A4
330
3A1
100
AcDbEntity
  8
LC-003-005-----0
 62
     7
370
    25
100
AcDbLine
 10
124.508327
 20
362.096205
 30
0.0
 11
126.927229
 21
364.515107
 31
0.0
  0
LINE
  5
3A5
330
3A1
100
AcDbEntity
  8
LC-003-005-----0
 62
     7
370
    25
100
AcDbLine
 10
121.679899
 20
362.096205
 30
0.0
 11
127.003285
 21
367.419591
 31
0.0
  0
LINE
  5
3A6
330
3A1
100
AcDbEntity
  8
LC-003-005-----0
 62
     7
370
    25
100
AcDbLine
 10
120.89629
 20
364.141023
 30
0.0
 11
127.079342
 21
370.324074
 31
0.0
  0
LINE
  5
3A7
330
3A1
100
AcDbEntity
  8
LC-003-005-----0
 62
     7
370
    25
100
AcDbLine
 10
120.824115
 20
366.897275
 30
0.0
 11
126.847754
 21
372.920914
 31
0.0
  0
LINE
  5
3A8
330
3A1
100
AcDbEntity
  8
LC-003-005-----0
 62
     7
370
    25
100
AcDbLine
 10
120.75194
 20
369.653527
 30
0.0
 11
124.370651
 21
373.272238
 31
0.0
  0
LINE
  5
3A9
330
3A1
100
AcDbEntity
  8
LC-003-005-----0
 62
     7
370
    25
100
AcDbLine
 10
120.684485
 20
372.414499
 30
0.0
 11
121.60968
 21
373.339694
 31
0.0
  0
ENDBLK
  5
3A3
330
3A1
100
AcDbEntity
  8
0
100
AcDbBlockEnd
  0
BLOCK
  5
3AC
330
3AB
100
AcDbEntity
  8
0
100
AcDbBlockBegin
  2
*X1721
 70
     1
 71
     0
 10
0.0
 20
0.0
 30
0.0
  3
*X1721
  1

  4
*X17
  0
LINE
  5
3AE
330
3AB
100
AcDbEntity
  8
LC-003-005-----0
 62
     7
370
    25
100
AcDbLine
 10
161.277879
 20
362.096205
 30
0.0
 11
162.398019
 21
363.216345
 31
0.0
  0
LINE
  5
3AF
330
3AB
100
AcDbEntity
  8
LC-003-005-----0
 62
     7
370
    25
100
AcDbLine
 10
158.618425
 20
362.265178
 30
0.0
 11
162.474076
 21
366.120829
 31
0.0
  0
LINE
  5
3B0
330
3AB
100
AcDbEntity
  8
LC-003-005-----0
 62
     7
370
    25
100
AcDbLine
 10
158.11929
 20
364.594471
 30
0.0
 11
162.550132
 21
369.025312
 31
0.0
  0
LINE
  5
3B1
330
3AB
100
AcDbEntity
  8
LC-003-005-----0
 62
     7
370
    25
100
AcDbLine
 10
157.620156
 20
366.923763
 30
0.0
 11
162.626189
 21
371.929796
 31
0.0
  0
LINE
  5
3B2
330
3AB
100
AcDbEntity
  8
LC-003-005-----0
 62
     7
370
    25
100
AcDbLine
 10
156.63581
 20
368.767844
 30
0.0
 11
160.836389
 21
372.968423
 31
0.0
  0
LINE
  5
3B3
330
3AB
100
AcDbEntity
  8
LC-003-005-----0
 62
     7
370
    25
100
AcDbLine
 10
154.135743
 20
369.096205
 30
0.0
 11
157.931905
 21
372.892367
 31
0.0
  0
LINE
  5
3B4
330
3AB
100
AcDbEntity
  8
LC-003-005-----0
 62
     7
370
    25
100
AcDbLine
 10
151.307316
 20
369.096205
 30
0.0
 11
155.027422
 21
372.81631
 31
0.0
  0
LINE
  5
3B5
330
3AB
100
AcDbEntity
  8
LC-003-005-----0
 62
     7
370
    25
100
AcDbLine
 10
148.478889
 20
369.096205
 30
0.0
 11
152.122938
 21
372.740254
 31
0.0
  0
LINE
  5
3B6
330
3AB
100
AcDbEntity
  8
LC-003-005-----0
 62
     7
370
    25
100
AcDbLine
 10
145.650462
 20
369.096205
 30
0.0
 11
149.218454
 21
372.664197
 31
0.0
  0
LINE
  5
3B7
330
3AB
100
AcDbEntity
  8
LC-003-005-----0
 62
     7
370
    25
100
AcDbLine
 10
135.822035
 20
362.096205
 30
0.0
 11
138.790796
 21
365.064966
 31
0.0
  0
LINE
  5
3B8
330
3AB
100
AcDbEntity
  8
LC-003-005-----0
 62
     7
370
    25
100
AcDbLine
 10
142.822035
 20
369.096205
 30
0.0
 11
146.420668
 21
372.694838
 31
0.0
  0
LINE
  5
3B9
330
3AB
100
AcDbEntity
  8
LC-003-005-----0
 62
     7
370
    25
100
AcDbLine
 10
134.403656
 20
363.506253
 30
0.0
 11
143.664416
 21
372.767013
 31
0.0
  0
LINE
  5
3BA
330
3AB
100
AcDbEntity
  8
LC-003-005-----0
 62
     7
370
    25
100
AcDbLine
 10
134.331481
 20
366.262505
 30
0.0
 11
140.908164
 21
372.839188
 31
0.0
  0
LINE
  5
3BB
330
3AB
100
AcDbEntity
  8
LC-003-005-----0
 62
     7
370
    25
100
AcDbLine
 10
134.259306
 20
369.018757
 30
0.0
 11
138.151912
 21
372.911363
 31
0.0
  0
LINE
  5
3BC
330
3AB
100
AcDbEntity
  8
LC-003-005-----0
 62
     7
370
    25
100
AcDbLine
 10
134.187131
 20
371.775009
 30
0.0
 11
135.39566
 21
372.983538
 31
0.0
  0
ENDBLK
  5
3AD
330
3AB
100
AcDbEntity
  8
0
100
AcDbBlockEnd
  0
BLOCK
  5
3BF
330
3BE
100
AcDbEntity
  8
0
100
AcDbBlockBegin
  2
*X1822
 70
     1
 71
     0
 10
0.0
 20
0.0
 30
0.0
  3
*X1822
  1

  4
*X18
  0
LINE
  5
3C1
330
3BE
100
AcDbEntity
  8
LC-003-005-----0
 62
     7
370
    25
100
AcDbLine
 10
198.047432
 20
362.096205
 30
0.0
 11
198.754633
 21
362.803406
 31
0.0
  0
LINE
  5
3C2
330
3BE
100
AcDbEntity
  8
LC-003-005-----0
 62
     7
370
    25
100
AcDbLine
 10
205.047432
 20
369.096205
 30
0.0
 11
205.904633
 21
369.953406
 31
0.0
  0
LINE
  5
3C3
330
3BE
100
AcDbEntity
  8
LC-003-005-----0
 62
     7
370
    25
100
AcDbLine
 10
196.431792
 20
363.308992
 30
0.0
 11
201.704633
 21
368.581833
 31
0.0
  0
LINE
  5
3C4
330
3BE
100
AcDbEntity
  8
LC-003-005-----0
 62
     7
370
    25
100
AcDbLine
 10
202.219005
 20
369.096205
 30
0.0
 11
205.81406
 21
372.69126
 31
0.0
  0
LINE
  5
3C5
330
3BE
100
AcDbEntity
  8
LC-003-005-----0
 62
     7
370
    25
100
AcDbLine
 10
196.359617
 20
366.065244
 30
0.0
 11
204.342138
 21
374.047766
 31
0.0
  0
LINE
  5
3C6
330
3BE
100
AcDbEntity
  8
LC-003-005-----0
 62
     7
370
    25
100
AcDbLine
 10
196.287442
 20
368.821497
 30
0.0
 11
201.499161
 21
374.033215
 31
0.0
  0
LINE
  5
3C7
330
3BE
100
AcDbEntity
  8
LC-003-005-----0
 62
     7
370
    25
100
AcDbLine
 10
196.215267
 20
371.577749
 30
0.0
 11
198.594677
 21
373.957159
 31
0.0
  0
ENDBLK
  5
3C0
330
3BE
100
AcDbEntity
  8
0
100
AcDbBlockEnd
  0
BLOCK
  5
3CA
330
3C9
100
AcDbEntity
  8
0
100
AcDbBlockBegin
  2
*X1923
 70
     1
 71
     0
 10
0.0
 20
0.0
 30
0.0
  3
*X1923
  1

  4
*X19
  0
LINE
  5
3CC
330
3C9
100
AcDbEntity
  8
LC-003-005-----0
 62
     7
370
    25
100
AcDbLine
 10
186.733723
 20
362.096205
 30
0.0
 11
188.907437
 21
364.269919
 31
0.0
  0
LINE
  5
3CD
330
3C9
100
AcDbEntity
  8
LC-003-005-----0
 62
     7
370
    25
100
AcDbLine
 10
183.905296
 20
362.096205
 30
0.0
 11
188.983493
 21
367.174402
 31
0.0
  0
LINE
  5
3CE
330
3C9
100
AcDbEntity
  8
LC-003-005-----0
 62
     7
370
    25
100
AcDbLine
 10
183.393961
 20
364.413297
 30
0.0
 11
189.05955
 21
370.078886
 31
0.0
  0
LINE
  5
3CF
330
3C9
100
AcDbEntity
  8
LC-003-005-----0
 62
     7
370
    25
100
AcDbLine
 10
183.321786
 20
367.169549
 30
0.0
 11
189.093414
 21
372.941177
 31
0.0
  0
LINE
  5
3D0
330
3C9
100
AcDbEntity
  8
LC-003-005-----0
 62
     7
370
    25
100
AcDbLine
 10
183.249611
 20
369.925801
 30
0.0
 11
186.976742
 21
373.652933
 31
0.0
  0
LINE
  5
3D1
330
3C9
100
AcDbEntity
  8
LC-003-005-----0
 62
     7
370
    25
100
AcDbLine
 10
183.18676
 20
372.691378
 30
0.0
 11
184.068456
 21
373.573074
 31
0.0
  0
ENDBLK
  5
3CB
330
3C9
100
AcDbEntity
  8
0
100
AcDbBlockEnd
  0
BLOCK
  5
3D4
330
3D3
100
AcDbEntity
  8
0
100
AcDbBlockBegin
  2
*X2024
 70
     1
 71
     0
 10
0.0
 20
0.0
 30
0.0
  3
*X2024
  1

  4
*X20
  0
LINE
  5
3D6
330
3D3
100
AcDbEntity
  8
LC-003-005-----0
 62
     7
370
    25
100
AcDbLine
 10
175.420015
 20
362.096205
 30
0.0
 11
175.871246
 21
362.547436
 31
0.0
  0
LINE
  5
3D7
330
3D3
100
AcDbEntity
  8
LC-003-005-----0
 62
     7
370
    25
100
AcDbLine
 10
172.591588
 20
362.096205
 30
0.0
 11
175.947303
 21
365.45192
 31
0.0
  0
LINE
  5
3D8
330
3D3
100
AcDbEntity
  8
LC-003-005-----0
 62
     7
370
    25
100
AcDbLine
 10
169.940729
 20
362.273774
 30
0.0
 11
176.023359
 21
368.356404
 31
0.0
  0
LINE
  5
3D9
330
3D3
100
AcDbEntity
  8
LC-003-005-----0
 62
     7
370
    25
100
AcDbLine
 10
169.868554
 20
365.030026
 30
0.0
 11
176.099416
 21
371.260888
 31
0.0
  0
LINE
  5
3DA
330
3D3
100
AcDbEntity
  8
LC-003-005-----0
 62
     7
370
    25
100
AcDbLine
 10
169.796379
 20
367.786278
 30
0.0
 11
175.331378
 21
373.321277
 31
0.0
  0
LINE
  5
3DB
330
3D3
100
AcDbEntity
  8
LC-003-005-----0
 62
     7
370
    25
100
AcDbLine
 10
169.724204
 20
370.54253
 30
0.0
 11
172.454324
 21
373.27265
 31
0.0
  0
ENDBLK
  5
3D5
330
3D3
100
AcDbEntity
  8
0
100
AcDbBlockEnd
  0
BLOCK
  5
3ED
330
3E2
100
AcDbEntity
  8
0
100
AcDbBlockBegin
  2
*D25
 70
     1
 71
     0
 10
0.0
 20
0.0
 30
0.0
  3
*D25
  1

  0
LINE
  5
3E3
330
3E2
100
AcDbEntity
  8
LC-004-003-----0
 62
     2
370
    -2
100
AcDbLine
 10
89.699633
 20
374.096204
 30
0.0
 11
62.457889
 21
374.096204
 31
0.0
  0
LINE
  5
3E4
330
3E2
100
AcDbEntity
  8
LC-004-003-----0
 62
     2
370
    -2
100
AcDbLine
 10
90.899633
 20
367.896204
 30
0.0
 11
62.457889
 21
367.896204
 31
0.0
  0
LINE
  5
3E5
330
3E2
100
AcDbEntity
  8
LC-004-003-----0
 62
     2
370
    -2
100
AcDbLine
 10
66.057889
 20
402.096204
 30
0.0
 11
66.057889
 21
430.096204
 31
0.0
  0
LINE
  5
3E6
330
3E2
100
AcDbEntity
  8
LC-004-003-----0
 62
     2
370
    -2
100
AcDbLine
 10
66.057889
 20
339.896204
 30
0.0
 11
66.057889
 21
314.500474
 31
0.0
  0
SOLID
  5
3E7
330
3E2
100
AcDbEntity
  8
LC-004-003-----0
 62
     2
100
AcDbTrace
 10
61.391222
 20
402.096204
 30
0.0
 11
70.724555
 21
402.096204
 31
0.0
 12
66.057889
 22
374.096204
 32
0.0
 13
66.057889
 23
374.096204
 33
0.0
  0
SOLID
  5
3E8
330
3E2
100
AcDbEntity
  8
LC-004-003-----0
 62
     2
100
AcDbTrace
 10
70.724555
 20
339.896204
 30
0.0
 11
61.391222
 21
339.896204
 31
0.0
 12
66.057889
 22
367.896204
 32
0.0
 13
66.057889
 23
367.896204
 33
0.0
  0
MTEXT
  5
3E9
330
3E2
100
AcDbEntity
  8
LC-004-003-----0
 62
     2
100
AcDbMText
 10
35.257889
 20
341.868
 30
0.0
 40
28.0
 41
0.0
 71
     5
 72
     1
  1
\A1;6,2
  7
LCTX15-400-0-0pDIN-Schrift
 11
6.123031769111886E-17
 21
1.0
 31
0.0
 73
     1
 44
1.0
  0
POINT
  5
3EA
330
3E2
100
AcDbEntity
  8
Defpoints
 62
     0
100
AcDbPoint
 10
89.699633
 20
374.096204
 30
0.0
  0
POINT
  5
3EB
330
3E2
100
AcDbEntity
  8
Defpoints
 62
     0
100
AcDbPoint
 10
90.899633
 20
367.896204
 30
0.0
  0
POINT
  5
3EC
330
3E2
100
AcDbEntity
  8
Defpoints
 62
     0
100
AcDbPoint
 10
66.057889
 20
367.896204
 30
0.0
  0
ENDBLK
  5
3EE
330
3E2
100
AcDbEntity
  8
0
100
AcDbBlockEnd
  0
BLOCK
  5
3FA
330
3F0
100
AcDbEntity
  8
0
100
AcDbBlockBegin
  2
*D26
 70
     1
 71
     0
 10
0.0
 20
0.0
 30
0.0
  3
*D26
  1

  0
LINE
  5
3F1
330
3F0
100
AcDbEntity
  8
LC-004-003-----0
 62
     2
370
    -2
100
AcDbLine
 10
194.404633
 20
249.650991
 30
0.0
 11
262.022815
 21
249.650991
 31
0.0
  0
LINE
  5
3F2
330
3F0
100
AcDbEntity
  8
LC-004-003-----0
 62
     2
370
    -2
100
AcDbLine
 10
196.904634
 20
351.895694
 30
0.0
 11
262.022815
 21
351.895694
 31
0.0
  0
LINE
  5
3F3
330
3F0
100
AcDbEntity
  8
LC-004-003-----0
 62
     2
370
    -2
100
AcDbLine
 10
258.422815
 20
277.650991
 30
0.0
 11
258.422815
 21
323.895694
 31
0.0
  0
SOLID
  5
3F4
330
3F0
100
AcDbEntity
  8
LC-004-003-----0
 62
     2
100
AcDbTrace
 10
253.756148
 20
277.650991
 30
0.0
 11
263.089482
 21
277.650991
 31
0.0
 12
258.422815
 22
249.650991
 32
0.0
 13
258.422815
 23
249.650991
 33
0.0
  0
SOLID
  5
3F5
330
3F0
100
AcDbEntity
  8
LC-004-003-----0
 62
     2
100
AcDbTrace
 10
263.089482
 20
323.895694
 30
0.0
 11
253.756148
 21
323.895694
 31
0.0
 12
258.422815
 22
351.895694
 32
0.0
 13
258.422815
 23
351.895694
 33
0.0
  0
MTEXT
  5
3F6
330
3F0
100
AcDbEntity
  8
LC-004-003-----0
 62
     2
100
AcDbMText
 10
227.622815
 20
296.724
 30
0.0
 40
28.0
 41
0.0
 71
     5
 72
     1
  1
\A1;28-102
  7
LCTX15-400-0-0pDIN-Schrift
 11
6.123031769111886E-17
 21
1.0
 31
0.0
 73
     1
 44
1.0
  0
POINT
  5
3F7
330
3F0
100
AcDbEntity
  8
Defpoints
 62
     0
100
AcDbPoint
 10
194.404633
 20
249.650991
 30
0.0
  0
POINT
  5
3F8
330
3F0
100
AcDbEntity
  8
Defpoints
 62
     0
100
AcDbPoint
 10
196.904634
 20
351.895694
 30
0.0
  0
POINT
  5
3F9
330
3F0
100
AcDbEntity
  8
Defpoints
 62
     0
100
AcDbPoint
 10
258.422815
 20
351.895694
 30
0.0
  0
ENDBLK
  5
3FB
330
3F0
100
AcDbEntity
  8
0
100
AcDbBlockEnd
  0
ENDSEC
  0
SECTION
  2
ENTITIES
  0
LINE
  5
31
330
1F
100
AcDbEntity
  8
LC-001-002-----0
 62
     7
370
    50
100
AcDbLine
 10
93.404633
 20
364.651819
 30
0.0
 11
94.904633
 21
364.651819
 31
0.0
  0
ARC
  5
33
330
1F
100
AcDbEntity
  8
LC-002-002-RND-0
 62
     7
370
    50
100
AcDbCircle
 10
203.909633
 20
366.897937
 30
0.0
 40
0.4999999999998758
100
AcDbArc
 50
112.0
 51
180.0
  0
ARC
  5
34
330
1F
100
AcDbEntity
  8
LC-002-002-RND-0
 62
     7
370
    50
100
AcDbCircle
 10
203.909633
 20
366.897937
 30
0.0
 40
1.199999999999955
100
AcDbArc
 50
112.0
 51
180.0
  0
LINE
  5
35
330
1F
100
AcDbEntity
  8
LC-001-002-----0
 62
     7
370
    50
100
AcDbLine
 10
93.096937
 20
367.361529
 30
0.0
 11
91.773567
 21
367.896205
 31
0.0
  0
LINE
  5
36
330
1F
100
AcDbEntity
  8
LC-001-002-----0
 62
     7
370
    50
100
AcDbLine
 10
93.359161
 20
368.010558
 30
0.0
 11
91.909633
 21
368.596205
 31
0.0
  0
ARC
  5
37
330
1F
100
AcDbEntity
  8
LC-002-002-RND-0
 62
     7
370
    50
100
AcDbCircle
 10
92.909633
 20
366.897937
 30
0.0
 40
1.200000000000046
100
AcDbArc
 50
0.0
 51
68.0
  0
ARC
  5
38
330
1F
100
AcDbEntity
  8
LC-002-002-RND-0
 62
     7
370
    50
100
AcDbCircle
 10
92.909633
 20
366.897937
 30
0.0
 40
0.5
100
AcDbArc
 50
0.0
 51
68.0
  0
INSERT
  5
46
330
1F
100
AcDbEntity
  8
LC-003-005-----0
 62
     7
370
    25
100
AcDbBlockReference
  2
*X11
 10
0.0
 20
0.0
 30
0.0
  0
LINE
  5
47
330
1F
100
AcDbEntity
  8
LC-001-002-----0
 62
     7
370
    50
100
AcDbLine
 10
207.109633
 20
374.096205
 30
0.0
 11
148.409633
 21
374.096205
 31
0.0
  0
LINE
  5
48
330
1F
100
AcDbEntity
  8
LC-001-002-----0
 62
     7
370
    50
100
AcDbLine
 10
205.909633
 20
367.896205
 30
0.0
 11
205.0457
 21
367.896205
 31
0.0
  0
LINE
  5
49
330
1F
100
AcDbEntity
  8
LC-001-002-----0
 62
     7
370
    50
100
AcDbLine
 10
199.473353
 20
359.12903
 30
0.0
 11
199.109633
 21
359.12903
 31
0.0
  0
ARC
  5
4A
330
1F
100
AcDbEntity
  8
LC-002-002-RND-0
 62
     7
370
    50
100
AcDbCircle
 10
205.909633
 20
369.096205
 30
0.0
 40
1.200000000000046
100
AcDbArc
 50
270.0
 51
0.0
  0
LINE
  5
4B
330
1F
100
AcDbEntity
  8
LC-001-002-----0
 62
     7
370
    50
100
AcDbLine
 10
205.909633
 20
368.596205
 30
0.0
 11
204.909633
 21
368.596205
 31
0.0
  0
ARC
  5
4C
330
1F
100
AcDbEntity
  8
LC-002-002-RND-0
 62
     7
370
    50
100
AcDbCircle
 10
205.909633
 20
369.096205
 30
0.0
 40
0.5
100
AcDbArc
 50
270.0
 51
0.0
  0
LINE
  5
4D
330
1F
100
AcDbEntity
  8
LC-001-002-----0
 62
     7
370
    50
100
AcDbLine
 10
90.909633
 20
367.896205
 30
0.0
 11
91.773567
 21
367.896205
 31
0.0
  0
ARC
  5
4E
330
1F
100
AcDbEntity
  8
LC-002-002-RND-0
 62
     7
370
    50
100
AcDbCircle
 10
90.909633
 20
369.096205
 30
0.0
 40
1.199999999999932
100
AcDbArc
 50
180.0
 51
270.0
  0
ARC
  5
4F
330
1F
100
AcDbEntity
  8
LC-002-002-RND-0
 62
     7
370
    50
100
AcDbCircle
 10
90.909633
 20
369.096205
 30
0.0
 40
0.5
100
AcDbArc
 50
180.0
 51
270.0
  0
ARC
  5
50
330
1F
100
AcDbEntity
  8
LC-001-002-----0
 62
     7
370
    50
100
AcDbCircle
 10
89.709633
 20
373.396205
 30
0.0
 40
0.6999999999999318
100
AcDbArc
 50
0.0
 51
180.0
  0
ARC
  5
51
330
1F
100
AcDbEntity
  8
LC-002-002-RND-0
 62
     7
370
    50
100
AcDbCircle
 10
94.609633
 20
365.851819
 30
0.0
 40
0.5
100
AcDbArc
 50
180.0
 51
270.0
  0
LINE
  5
52
330
1F
100
AcDbEntity
  8
LC-001-002-----0
 62
     7
370
    50
100
AcDbLine
 10
89.709633
 20
371.596205
 30
0.0
 11
89.009633
 21
371.596205
 31
0.0
  0
LINE
  5
53
330
1F
100
AcDbEntity
  8
LC-001-002-----0
 62
     7
370
    50
100
AcDbLine
 10
89.709633
 20
369.096205
 30
0.0
 11
89.709633
 21
372.901468
 31
0.0
  0
LINE
  5
54
330
1F
100
AcDbEntity
  8
LC-001-002-----0
 62
     7
370
    50
100
AcDbLine
 10
90.409633
 20
369.096205
 30
0.0
 11
90.409633
 21
373.396205
 31
0.0
  0
LINE
  5
55
330
1F
100
AcDbEntity
  8
LC-001-002-----0
 62
     7
370
    50
100
AcDbLine
 10
89.009633
 20
371.596205
 30
0.0
 11
89.009633
 21
373.396205
 31
0.0
  0
ARC
  5
56
330
1F
100
AcDbEntity
  8
LC-002-002-RND-0
 62
     7
370
    50
100
AcDbCircle
 10
94.609633
 20
365.851819
 30
0.0
 40
1.199999999999932
100
AcDbArc
 50
180.0
 51
270.0
  0
ARC
  5
57
330
1F
100
AcDbEntity
  8
LC-002-002-RND-0
 62
     7
370
    50
100
AcDbCircle
 10
96.509633
 20
364.151819
 30
0.0
 40
1.200000000000046
100
AcDbArc
 50
0.0
 51
90.0
  0
LINE
  5
58
330
1F
100
AcDbEntity
  8
LC-001-002-----0
 62
     7
370
    50
100
AcDbLine
 10
96.509633
 20
364.651819
 30
0.0
 11
94.609633
 21
364.651819
 31
0.0
  0
LINE
  5
59
330
1F
100
AcDbEntity
  8
LC-001-002-----0
 62
     7
370
    50
100
AcDbLine
 10
94.109633
 20
366.897937
 30
0.0
 11
94.109633
 21
365.851819
 31
0.0
  0
ARC
  5
5A
330
1F
100
AcDbEntity
  8
LC-001-002-----0
 62
     7
370
    50
100
AcDbCircle
 10
207.109633
 20
373.396205
 30
0.0
 40
0.7000000000002729
100
AcDbArc
 50
0.0
 51
180.0
  0
LINE
  5
5B
330
1F
100
AcDbEntity
  8
LC-001-002-----0
 62
     7
370
    50
100
AcDbLine
 10
93.409633
 20
366.897937
 30
0.0
 11
93.409633
 21
365.851819
 31
0.0
  0
ARC
  5
5C
330
1F
100
AcDbEntity
  8
LC-002-002-RND-0
 62
     7
370
    50
100
AcDbCircle
 10
202.209633
 20
365.851819
 30
0.0
 40
0.5
100
AcDbArc
 50
270.0
 51
0.0
  0
LINE
  5
5D
330
1F
100
AcDbEntity
  8
LC-001-002-----0
 62
     7
370
    50
100
AcDbLine
 10
207.109633
 20
371.596205
 30
0.0
 11
207.809633
 21
371.596205
 31
0.0
  0
ARC
  5
5E
330
1F
100
AcDbEntity
  8
LC-002-002-RND-0
 62
     7
370
    50
100
AcDbCircle
 10
96.509633
 20
364.151819
 30
0.0
 40
0.5000000000000029
100
AcDbArc
 50
14.877717
 51
90.0
  0
LINE
  5
5F
330
1F
100
AcDbEntity
  8
LC-001-002-----0
 62
     7
370
    50
100
AcDbLine
 10
97.709633
 20
359.12903
 30
0.0
 11
97.709633
 21
364.151819
 31
0.0
  0
LINE
  5
60
330
1F
100
AcDbEntity
  8
LC-001-002-----0
 62
     7
370
    50
100
AcDbLine
 10
97.009633
 20
359.829384
 30
0.0
 11
97.009633
 21
362.539658
 31
0.0
  0
LINE
  5
61
330
1F
100
AcDbEntity
  8
LC-001-002-----0
 62
     7
370
    50
100
AcDbLine
 10
97.345913
 20
359.12903
 30
0.0
 11
97.709633
 21
359.12903
 31
0.0
  0
LINE
  5
62
330
1F
100
AcDbEntity
  8
LC-001-002-----0
 62
     7
370
    50
100
AcDbLine
 10
97.064005
 20
358.726424
 30
0.0
 11
98.060317
 21
355.989079
 31
0.0
  0
LINE
  5
63
330
1F
100
AcDbEntity
  8
LC-001-002-----0
 62
     7
370
    50
100
AcDbLine
 10
207.109633
 20
369.096205
 30
0.0
 11
207.109633
 21
372.989893
 31
0.0
  0
ARC
  5
64
330
1F
100
AcDbEntity
  8
LC-002-002-RND-0
 62
     7
370
    50
100
AcDbCircle
 10
97.345913
 20
358.82903
 30
0.0
 40
0.2999999999999545
100
AcDbArc
 50
90.0
 51
200.0
  0
LINE
  5
65
330
1F
100
AcDbEntity
  8
LC-001-002-----0
 62
     7
370
    50
100
AcDbLine
 10
98.060317
 20
355.989079
 30
0.0
 11
97.398322
 21
355.748133
 31
0.0
  0
LINE
  5
66
330
1F
100
AcDbEntity
  8
LC-001-002-----0
 62
     7
370
    50
100
AcDbLine
 10
96.416639
 20
358.445287
 30
0.0
 11
97.398322
 21
355.748133
 31
0.0
  0
ARC
  5
67
330
1F
100
AcDbEntity
  8
LC-001-002-----0
 62
     7
370
    50
100
AcDbCircle
 10
97.4503
 20
358.821509
 30
0.0
 40
1.09999999999986
100
AcDbArc
 50
113.616097
 51
200.0
  0
LINE
  5
68
330
1F
100
AcDbEntity
  8
LC-001-002-----0
 62
     7
370
    50
100
AcDbLine
 10
94.904633
 20
362.651819
 30
0.0
 11
95.137395
 21
362.651819
 31
0.0
  0
LINE
  5
69
330
1F
100
AcDbEntity
  8
LC-001-002-----0
 62
     7
370
    50
100
AcDbLine
 10
89.709633
 20
374.096205
 30
0.0
 11
148.409633
 21
374.096205
 31
0.0
  0
LINE
  5
6A
330
1F
100
AcDbEntity
  8
LC-001-002-----0
 62
     7
370
    50
100
AcDbLine
 10
90.909633
 20
368.596205
 30
0.0
 11
91.909633
 21
368.596205
 31
0.0
  0
LINE
  5
6C
330
1F
100
AcDbEntity
  8
LC-004-003-----0
 62
     7
370
    25
100
AcDbLine
 10
148.409633
 20
367.586221
 30
0.0
 11
148.404633
 21
367.586221
 31
0.0
  0
LINE
  5
6D
330
1F
100
AcDbEntity
  8
LC-001-002-----0
 62
     7
370
    50
100
AcDbLine
 10
97.709633
 20
359.12903
 30
0.0
 11
148.409633
 21
359.12903
 31
0.0
  0
LINE
  5
6E
330
1F
100
AcDbEntity
  8
LC-001-002-----0
 62
     7
370
    50
100
AcDbLine
 10
206.409633
 20
369.096205
 30
0.0
 11
206.409633
 21
373.396205
 31
0.0
  0
LINE
  5
6F
330
1F
100
AcDbEntity
  8
LC-001-002-----0
 62
     7
370
    50
100
AcDbLine
 10
98.058623
 20
355.993735
 30
0.0
 11
148.409633
 21
355.993735
 31
0.0
  0
LINE
  5
70
330
1F
100
AcDbEntity
  8
LC-001-002-----0
 62
     7
370
    50
100
AcDbLine
 10
97.398322
 20
355.748133
 30
0.0
 11
148.409633
 21
355.748133
 31
0.0
  0
LINE
  5
71
330
1F
100
AcDbEntity
  8
LC-001-002-----0
 62
     7
370
    50
100
AcDbLine
 10
201.618804
 20
362.651819
 30
0.0
 11
201.904633
 21
362.651819
 31
0.0
  0
LINE
  5
72
330
1F
100
AcDbEntity
  8
LC-001-002-----0
 62
     7
370
    50
100
AcDbLine
 10
96.509633
 20
365.351819
 30
0.0
 11
94.609633
 21
365.351819
 31
0.0
  0
LINE
  5
73
330
1F
100
AcDbEntity
  8
LC-001-002-----0
 62
     7
370
    50
100
AcDbLine
 10
197.360422
 20
355.993735
 30
0.0
 11
148.409633
 21
355.993735
 31
0.0
  0
LINE
  5
74
330
1F
100
AcDbEntity
  8
LC-001-002-----0
 62
     7
370
    50
100
AcDbLine
 10
199.755261
 20
358.726424
 30
0.0
 11
198.758949
 21
355.989079
 31
0.0
  0
LINE
  5
75
330
1F
100
AcDbEntity
  8
LC-001-002-----0
 62
     7
370
    50
100
AcDbLine
 10
200.402628
 20
358.445287
 30
0.0
 11
199.420944
 21
355.748133
 31
0.0
  0
ARC
  5
76
330
1F
100
AcDbEntity
  8
LC-001-002-----0
 62
     7
370
    50
100
AcDbCircle
 10
199.368966
 20
358.821509
 30
0.0
 40
1.100000000000035
100
AcDbArc
 50
340.0
 51
66.383903
  0
ARC
  5
77
330
1F
100
AcDbEntity
  8
LC-002-002-RND-0
 62
     7
370
    50
100
AcDbCircle
 10
199.473353
 20
358.82903
 30
0.0
 40
0.2999999999999203
100
AcDbArc
 50
340.0
 51
90.0
  0
LINE
  5
78
330
1F
100
AcDbEntity
  8
LC-001-002-----0
 62
     7
370
    50
100
AcDbLine
 10
198.746158
 20
355.993735
 30
0.0
 11
148.409633
 21
355.993735
 31
0.0
  0
LINE
  5
79
330
1F
100
AcDbEntity
  8
LC-001-002-----0
 62
     7
370
    50
100
AcDbLine
 10
198.758949
 20
355.989079
 30
0.0
 11
199.420944
 21
355.748133
 31
0.0
  0
LINE
  5
7A
330
1F
100
AcDbEntity
  8
LC-001-002-----0
 62
     7
370
    50
100
AcDbLine
 10
200.309633
 20
365.351819
 30
0.0
 11
202.209633
 21
365.351819
 31
0.0
  0
LINE
  5
7B
330
1F
100
AcDbEntity
  8
LC-001-002-----0
 62
     7
370
    50
100
AcDbLine
 10
199.109633
 20
359.12903
 30
0.0
 11
148.409633
 21
359.12903
 31
0.0
  0
LINE
  5
7C
330
1F
100
AcDbEntity
  8
LC-001-002-----0
 62
     7
370
    50
100
AcDbLine
 10
199.420944
 20
355.748133
 30
0.0
 11
148.409633
 21
355.748133
 31
0.0
  0
LINE
  5
7D
330
1F
100
AcDbEntity
  8
LC-001-002-----0
 62
     7
370
    50
100
AcDbLine
 10
203.460105
 20
368.010558
 30
0.0
 11
204.909633
 21
368.596205
 31
0.0
  0
LINE
  5
7E
330
1F
100
AcDbEntity
  8
LC-001-002-----0
 62
     7
370
    50
100
AcDbLine
 10
203.72233
 20
367.361529
 30
0.0
 11
205.0457
 21
367.896205
 31
0.0
  0
LINE
  5
7F
330
1F
100
AcDbEntity
  8
LC-001-002-----0
 62
     7
370
    50
100
AcDbLine
 10
207.809633
 20
371.596205
 30
0.0
 11
207.809633
 21
373.396205
 31
0.0
  0
ARC
  5
80
330
1F
100
AcDbEntity
  8
LC-002-002-RND-0
 62
     7
370
    50
100
AcDbCircle
 10
202.209633
 20
365.851819
 30
0.0
 40
1.199999999999818
100
AcDbArc
 50
270.0
 51
0.0
  0
ARC
  5
81
330
1F
100
AcDbEntity
  8
LC-002-002-RND-0
 62
     7
370
    50
100
AcDbCircle
 10
200.309633
 20
364.151819
 30
0.0
 40
1.200000000000046
100
AcDbArc
 50
90.0
 51
180.0
  0
LINE
  5
82
330
1F
100
AcDbEntity
  8
LC-001-002-----0
 62
     7
370
    50
100
AcDbLine
 10
203.404633
 20
364.651819
 30
0.0
 11
201.904633
 21
364.651819
 31
0.0
  0
LINE
  5
83
330
1F
100
AcDbEntity
  8
LC-001-002-----0
 62
     7
370
    50
100
AcDbLine
 10
200.309633
 20
364.651819
 30
0.0
 11
202.209633
 21
364.651819
 31
0.0
  0
LINE
  5
84
330
1F
100
AcDbEntity
  8
LC-001-002-----0
 62
     7
370
    50
100
AcDbLine
 10
202.709633
 20
366.897937
 30
0.0
 11
202.709633
 21
365.851819
 31
0.0
  0
LINE
  5
85
330
1F
100
AcDbEntity
  8
LC-001-002-----0
 62
     7
370
    50
100
AcDbLine
 10
203.409633
 20
366.897937
 30
0.0
 11
203.409633
 21
365.851819
 31
0.0
  0
ARC
  5
86
330
1F
100
AcDbEntity
  8
LC-002-002-RND-0
 62
     7
370
    50
100
AcDbCircle
 10
200.309633
 20
364.151819
 30
0.0
 40
0.5
100
AcDbArc
 50
90.0
 51
157.697632
  0
LINE
  5
87
330
1F
100
AcDbEntity
  8
LC-001-002-----0
 62
     7
370
    50
100
AcDbLine
 10
199.109633
 20
359.12903
 30
0.0
 11
199.109633
 21
364.151819
 31
0.0
  0
LINE
  5
88
330
1F
100
AcDbEntity
  8
LC-001-002-----0
 62
     7
370
    50
100
AcDbLine
 10
199.809633
 20
359.829384
 30
0.0
 11
199.809633
 21
362.465005
 31
0.0
  0
INSERT
  5
94
330
1F
100
AcDbEntity
  8
LC-003-005-----0
 62
     7
370
    25
100
AcDbBlockReference
  2
*X22
 10
0.0
 20
0.0
 30
0.0
  0
LINE
  5
95
330
1F
100
AcDbEntity
  8
LC-001-002-----0
 62
     7
370
    50
100
AcDbLine
 10
202.909633
 20
368.596205
 30
0.0
 11
202.909633
 21
368.596205
 31
0.0
  0
LINE
  5
96
330
1F
100
AcDbEntity
  8
LC-001-002-----0
 62
     7
370
    50
100
AcDbLine
 10
202.909633
 20
368.596205
 30
0.0
 11
202.909633
 21
368.596205
 31
0.0
  0
LINE
  5
97
330
1F
100
AcDbEntity
  8
LC-001-002-----0
 62
     7
370
    50
100
AcDbLine
 10
94.109633
 20
366.897937
 30
0.0
 11
94.109633
 21
365.851819
 31
0.0
  0
LINE
  5
98
330
1F
100
AcDbEntity
  8
LC-001-002-----0
 62
     7
370
    50
100
AcDbLine
 10
93.909633
 20
368.596205
 30
0.0
 11
93.909633
 21
368.596205
 31
0.0
  0
LINE
  5
99
330
1F
100
AcDbEntity
  8
LC-001-002-----0
 62
     7
370
    50
100
AcDbLine
 10
93.909633
 20
368.596205
 30
0.0
 11
93.909633
 21
368.596205
 31
0.0
  0
CIRCLE
  5
9A
102
{ACAD_REACTORS
330
3FD
102
}
330
1F
100
AcDbEntity
  8
LC-001-002-----0
 62
     7
370
    50
100
AcDbCircle
 10
96.13628
 20
363.401819
 30
0.0
 40
1.25
  0
CIRCLE
  5
9B
102
{ACAD_REACTORS
330
3FD
102
}
330
1F
100
AcDbEntity
  8
LC-001-002-----0
 62
     7
370
    50
100
AcDbCircle
 10
200.63628
 20
363.401819
 30
0.0
 40
1.25
  0
INSERT
  5
A3
102
{ACAD_REACTORS
330
3FD
102
}
330
1F
100
AcDbEntity
  8
LC-003-005-----0
 62
     7
370
    25
100
AcDbBlockReference
  2
*X33
 10
0.0
 20
0.0
 30
0.0
  0
LINE
  5
A4
330
1F
100
AcDbEntity
  8
LC-001-002-----0
 62
     7
370
    50
100
AcDbLine
 10
179.392281
 20
323.553743
 30
0.0
 11
180.892281
 21
326.151819
 31
0.0
  0
LINE
  5
A5
330
1F
100
AcDbEntity
  8
LC-001-002-----0
 62
     7
370
    50
100
AcDbLine
 10
180.892281
 20
326.151819
 30
0.0
 11
187.392281
 21
337.410149
 31
0.0
  0
INSERT
  5
F1
330
1F
100
AcDbEntity
  8
LC-003-005-----0
 62
     7
370
    25
100
AcDbBlockReference
  2
*X44
 10
0.0
 20
0.0
 30
0.0
  0
LINE
  5
F2
330
1F
100
AcDbEntity
  8
LC-001-002-----0
 62
     7
370
    50
100
AcDbLine
 10
115.892281
 20
326.151819
 30
0.0
 11
109.392281
 21
337.410149
 31
0.0
  0
LINE
  5
F3
330
1F
100
AcDbEntity
  8
LC-001-002-----0
 62
     7
370
    50
100
AcDbLine
 10
115.892282
 20
320.151819
 30
0.0
 11
107.892281
 21
334.008225
 31
0.0
  0
LINE
  5
F4
330
1F
100
AcDbEntity
  8
LC-001-002-----0
 62
     7
370
    50
100
AcDbLine
 10
179.392281
 20
323.553743
 30
0.0
 11
169.404633
 21
323.553743
 31
0.0
  0
LINE
  5
F5
330
1F
100
AcDbEntity
  8
LC-001-002-----0
 62
     7
370
    50
100
AcDbLine
 10
105.892309
 20
341.651819
 30
0.0
 11
105.892309
 21
343.151819
 31
0.0
  0
LINE
  5
F7
330
1F
100
AcDbEntity
  8
LC-005-101-----0
 62
     7
370
    50
100
AcDbLine
 10
117.392281
 20
323.553743
 30
0.0
 11
117.392282
 21
272.151819
 31
0.0
  0
ARC
  5
F8
330
1F
100
AcDbEntity
  8
LC-005-101-----0
 62
     7
370
    50
100
AcDbCircle
 10
170.892282
 20
272.151819
 30
0.0
 40
8.5
100
AcDbArc
 50
270.0
 51
0.0
  0
ARC
  5
F9
330
1F
100
AcDbEntity
  8
LC-005-101-----0
 62
     7
370
    50
100
AcDbCircle
 10
170.892282
 20
272.151819
 30
0.0
 40
10.0
100
AcDbArc
 50
270.0
 51
0.0
  0
LINE
  5
FA
330
1F
100
AcDbEntity
  8
LC-005-101-----0
 62
     7
370
    50
100
AcDbLine
 10
105.892309
 20
341.651819
 30
0.0
 11
107.892281
 21
341.651819
 31
0.0
  0
ARC
  5
FB
330
1F
100
AcDbEntity
  8
LC-005-101-----0
 62
     7
370
    50
100
AcDbCircle
 10
125.892282
 20
272.151819
 30
0.0
 40
8.5
100
AcDbArc
 50
180.0
 51
270.0
  0
LINE
  5
FC
330
1F
100
AcDbEntity
  8
LC-005-101-----0
 62
     7
370
    50
100
AcDbLine
 10
125.892282
 20
263.651819
 30
0.0
 11
170.892282
 21
263.651819
 31
0.0
  0
ARC
  5
FD
330
1F
100
AcDbEntity
  8
LC-005-101-----0
 62
     7
370
    50
100
AcDbCircle
 10
125.892282
 20
272.151819
 30
0.0
 40
10.0
100
AcDbArc
 50
180.0
 51
270.0
  0
LINE
  5
FE
330
1F
100
AcDbEntity
  8
LC-005-101-----0
 62
     7
370
    50
100
AcDbLine
 10
125.892282
 20
262.151819
 30
0.0
 11
170.892282
 21
262.151819
 31
0.0
  0
LINE
  5
FF
330
1F
100
AcDbEntity
  8
LC-005-101-----0
 62
     7
370
    50
100
AcDbLine
 10
109.392281
 20
342.079604
 30
0.0
 11
109.392281
 21
343.151819
 31
0.0
  0
LINE
  5
100
330
1F
100
AcDbEntity
  8
LC-005-101-----0
 62
     7
370
    50
100
AcDbLine
 10
188.892281
 20
334.008225
 30
0.0
 11
188.892281
 21
341.651819
 31
0.0
  0
LINE
  5
101
330
1F
100
AcDbEntity
  8
LC-005-101-----0
 62
     7
370
    50
100
AcDbLine
 10
107.892281
 20
334.008225
 30
0.0
 11
107.892281
 21
341.651819
 31
0.0
  0
LINE
  5
102
330
1F
100
AcDbEntity
  8
LC-005-101-----0
 62
     7
370
    50
100
AcDbLine
 10
187.392281
 20
342.079604
 30
0.0
 11
187.392281
 21
343.151819
 31
0.0
  0
LINE
  5
103
330
1F
100
AcDbEntity
  8
LC-005-101-----0
 62
     7
370
    50
100
AcDbLine
 10
187.392281
 20
337.410149
 30
0.0
 11
187.392281
 21
342.079604
 31
0.0
  0
LINE
  5
104
330
1F
100
AcDbEntity
  8
LC-005-101-----0
 62
     7
370
    50
100
AcDbLine
 10
190.892254
 20
343.151819
 30
0.0
 11
187.392281
 21
343.151819
 31
0.0
  0
LINE
  5
105
330
1F
100
AcDbEntity
  8
LC-005-101-----0
 62
     7
370
    50
100
AcDbLine
 10
191.154633
 20
341.651819
 30
0.0
 11
188.892281
 21
341.651819
 31
0.0
  0
LINE
  5
106
330
1F
100
AcDbEntity
  8
LC-005-101-----0
 62
     7
370
    50
100
AcDbLine
 10
105.892309
 20
343.151819
 30
0.0
 11
109.392281
 21
343.151819
 31
0.0
  0
LINE
  5
107
330
1F
100
AcDbEntity
  8
LC-005-101-----0
 62
     7
370
    50
100
AcDbLine
 10
109.392281
 20
336.288488
 30
0.0
 11
109.392281
 21
342.079604
 31
0.0
  0
LINE
  5
108
330
1F
100
AcDbEntity
  8
LC-005-101-----0
 62
     7
370
    50
100
AcDbLine
 10
179.392281
 20
323.553743
 30
0.0
 11
179.392282
 21
272.151819
 31
0.0
  0
LINE
  5
109
330
1F
100
AcDbEntity
  8
LC-005-101-----0
 62
     7
370
    50
100
AcDbLine
 10
180.892281
 20
320.151819
 30
0.0
 11
180.892282
 21
272.151819
 31
0.0
  0
LINE
  5
10A
330
1F
100
AcDbEntity
  8
LC-005-101-----0
 62
     7
370
    50
100
AcDbLine
 10
190.892262
 20
343.151819
 30
0.0
 11
190.89226
 21
341.651819
 31
0.0
  0
LINE
  5
10B
330
1F
100
AcDbEntity
  8
LC-005-101-----0
 62
     7
370
    50
100
AcDbLine
 10
115.892281
 20
326.151819
 30
0.0
 11
115.892282
 21
272.151819
 31
0.0
  0
LINE
  5
10C
330
1F
100
AcDbEntity
  8
LC-005-101-----0
 62
     7
370
    50
100
AcDbLine
 10
115.892281
 20
326.151819
 30
0.0
 11
117.392281
 21
323.553743
 31
0.0
  0
LINE
  5
10D
330
1F
100
AcDbEntity
  8
LC-001-002-----0
 62
     7
370
    50
100
AcDbLine
 10
115.892281
 20
326.151819
 30
0.0
 11
127.054359
 21
326.151819
 31
0.0
  0
LINE
  5
10E
330
1F
100
AcDbEntity
  8
LC-001-002-----0
 62
     7
370
    50
100
AcDbLine
 10
107.892281
 20
336.288488
 30
0.0
 11
109.392281
 21
336.288488
 31
0.0
  0
LINE
  5
10F
330
1F
100
AcDbEntity
  8
LC-001-002-----0
 62
     7
370
    50
100
AcDbLine
 10
180.892281
 20
320.151819
 30
0.0
 11
188.892281
 21
334.008225
 31
0.0
  0
INSERT
  5
136
330
1F
100
AcDbEntity
  8
LC-003-005-----0
 62
     7
370
    25
100
AcDbBlockReference
  2
*X55
 10
0.0
 20
0.0
 30
0.0
  0
LINE
  5
139
330
1F
100
AcDbEntity
  8
LC-006-006-MLN-0
 62
     7
370
    25
100
AcDbLine
 10
148.404633
 20
375.351819
 30
0.0
 11
148.404634
 21
239.651819
 31
0.0
  0
LINE
  5
13A
330
1F
100
AcDbEntity
  8
LC-001-002-----0
 62
     7
370
    50
100
AcDbLine
 10
126.52647
 20
326.865869
 30
0.0
 11
117.783313
 21
335.613281
 31
0.0
  0
LINE
  5
13B
330
1F
100
AcDbEntity
  8
LC-001-002-----0
 62
     7
370
    50
100
AcDbLine
 10
128.404634
 20
327.109026
 30
0.0
 11
118.404634
 21
337.113281
 31
0.0
  0
ARC
  5
13C
330
1F
100
AcDbEntity
  8
LC-002-002-RND-0
 62
     7
370
    50
100
AcDbCircle
 10
124.404634
 20
324.745065
 30
0.0
 40
3.000000000000028
100
AcDbArc
 50
0.0
 51
44.986061
  0
LINE
  5
13D
330
1F
100
AcDbEntity
  8
LC-005-101-----0
 62
     7
370
    50
100
AcDbLine
 10
148.404633
 20
327.109027
 30
0.0
 11
128.404634
 21
327.109026
 31
0.0
  0
LINE
  5
13E
330
1F
100
AcDbEntity
  8
LC-001-002-----0
 62
     7
370
    50
100
AcDbLine
 10
134.18058
 20
337.113281
 30
0.0
 11
148.404633
 21
337.113281
 31
0.0
  0
LINE
  5
13F
330
1F
100
AcDbEntity
  8
LC-005-101-----0
 62
     7
370
    50
100
AcDbLine
 10
127.404634
 20
276.111819
 30
0.0
 11
127.404634
 21
324.745065
 31
0.0
  0
LINE
  5
140
330
1F
100
AcDbEntity
  8
LC-005-101-----0
 62
     7
370
    50
100
AcDbLine
 10
117.783313
 20
335.613281
 30
0.0
 11
111.478168
 21
335.613281
 31
0.0
  0
LINE
  5
141
330
1F
100
AcDbEntity
  8
LC-005-101-----0
 62
     7
370
    50
100
AcDbLine
 10
128.404634
 20
276.111819
 30
0.0
 11
128.404634
 21
327.109026
 31
0.0
  0
LINE
  5
142
330
1F
100
AcDbEntity
  8
LC-005-101-----0
 62
     7
370
    50
100
AcDbLine
 10
134.18058
 20
337.113281
 30
0.0
 11
113.592497
 21
337.113281
 31
0.0
  0
LINE
  5
143
330
1F
100
AcDbEntity
  8
LC-005-101-----0
 62
     7
370
    50
100
AcDbLine
 10
102.904633
 20
348.651819
 30
0.0
 11
106.404633
 21
348.651819
 31
0.0
  0
LINE
  5
144
330
1F
100
AcDbEntity
  8
LC-005-101-----0
 62
     7
370
    50
100
AcDbLine
 10
103.154633
 20
351.613281
 30
0.0
 11
103.154633
 21
348.651819
 31
0.0
  0
LINE
  5
145
330
1F
100
AcDbEntity
  8
LC-005-101-----0
 62
     7
370
    50
100
AcDbLine
 10
148.404634
 20
276.11182
 30
0.0
 11
127.404634
 21
276.111819
 31
0.0
  0
ARC
  5
147
330
1F
100
AcDbEntity
  8
LC-007-101-RND-0
 62
     7
370
    50
100
AcDbCircle
 10
113.592497
 20
338.113281
 30
0.0
 40
0.9999999999999948
100
AcDbArc
 50
195.0
 51
270.000001
  0
LINE
  5
148
330
1F
100
AcDbEntity
  8
LC-005-101-----0
 62
     7
370
    50
100
AcDbLine
 10
111.478168
 20
335.613281
 30
0.0
 11
109.404633
 21
343.351819
 31
0.0
  0
LINE
  5
149
330
1F
100
AcDbEntity
  8
LC-005-101-----0
 62
     7
370
    50
100
AcDbLine
 10
106.904633
 20
343.351819
 30
0.0
 11
109.404633
 21
343.351819
 31
0.0
  0
LINE
  5
14A
330
1F
100
AcDbEntity
  8
LC-005-101-----0
 62
     7
370
    50
100
AcDbLine
 10
106.904633
 20
343.351819
 30
0.0
 11
106.904633
 21
343.351819
 31
0.0
  0
LINE
  5
14B
330
1F
100
AcDbEntity
  8
LC-005-101-----0
 62
     7
370
    50
100
AcDbLine
 10
106.904633
 20
343.351819
 30
0.0
 11
107.904633
 21
344.851819
 31
0.0
  0
LINE
  5
14C
330
1F
100
AcDbEntity
  8
LC-005-101-----0
 62
     7
370
    50
100
AcDbLine
 10
106.404633
 20
347.151819
 30
0.0
 11
107.904633
 21
347.151819
 31
0.0
  0
LINE
  5
14D
330
1F
100
AcDbEntity
  8
LC-005-101-----0
 62
     7
370
    50
100
AcDbLine
 10
112.626571
 20
337.854462
 30
0.0
 11
110.051115
 21
347.466194
 31
0.0
  0
LINE
  5
14E
330
1F
100
AcDbEntity
  8
LC-005-101-----0
 62
     7
370
    50
100
AcDbLine
 10
103.154633
 20
351.613281
 30
0.0
 11
106.150944
 21
351.08495
 31
0.0
  0
ARC
  5
14F
330
1F
100
AcDbEntity
  8
LC-005-101-----0
 62
     7
370
    50
100
AcDbCircle
 10
105.221486
 20
346.172098
 30
0.0
 40
4.9999999999999
100
AcDbArc
 50
15.000001
 51
79.286878
  0
LINE
  5
150
330
1F
100
AcDbEntity
  8
LC-005-101-----0
 62
     7
370
    50
100
AcDbLine
 10
106.404633
 20
348.651819
 30
0.0
 11
106.404633
 21
347.151819
 31
0.0
  0
LINE
  5
151
330
1F
100
AcDbEntity
  8
LC-005-101-----0
 62
     7
370
    50
100
AcDbLine
 10
107.904633
 20
347.151819
 30
0.0
 11
107.904633
 21
344.851819
 31
0.0
  0
LINE
  5
152
330
1F
100
AcDbEntity
  8
LC-001-002-----0
 62
     7
370
    50
100
AcDbLine
 10
103.154633
 20
351.613281
 30
0.0
 11
148.404633
 21
351.613281
 31
0.0
  0
ARC
  5
153
330
1F
100
AcDbEntity
  8
LC-002-002-RND-0
 62
     7
370
    50
100
AcDbCircle
 10
172.404633
 20
324.745066
 30
0.0
 40
3.00000000000002
100
AcDbArc
 50
135.013939
 51
180.000001
  0
INSERT
  5
171
330
1F
100
AcDbEntity
  8
LC-003-005-----0
 62
     7
370
    25
100
AcDbBlockReference
  2
*X66
 10
0.0
 20
0.0
 30
0.0
  0
LINE
  5
172
330
1F
100
AcDbEntity
  8
LC-001-002-----0
 62
     7
370
    50
100
AcDbLine
 10
168.404633
 20
327.109027
 30
0.0
 11
178.404633
 21
337.113282
 31
0.0
  0
LINE
  5
173
330
1F
100
AcDbEntity
  8
LC-005-101-----0
 62
     7
370
    50
100
AcDbLine
 10
148.404633
 20
327.109027
 30
0.0
 11
168.404633
 21
327.109027
 31
0.0
  0
LINE
  5
174
330
1F
100
AcDbEntity
  8
LC-001-002-----0
 62
     7
370
    50
100
AcDbLine
 10
167.247711
 20
337.113282
 30
0.0
 11
148.404633
 21
337.113281
 31
0.0
  0
LINE
  5
175
330
1F
100
AcDbEntity
  8
LC-001-002-----0
 62
     7
370
    50
100
AcDbLine
 10
170.282797
 20
326.86587
 30
0.0
 11
179.025953
 21
335.613282
 31
0.0
  0
LINE
  5
176
330
1F
100
AcDbEntity
  8
LC-005-101-----0
 62
     7
370
    50
100
AcDbLine
 10
179.025953
 20
335.613282
 30
0.0
 11
185.331098
 21
335.613282
 31
0.0
  0
LINE
  5
177
330
1F
100
AcDbEntity
  8
LC-005-101-----0
 62
     7
370
    50
100
AcDbLine
 10
168.404634
 20
276.11182
 30
0.0
 11
168.404633
 21
327.109027
 31
0.0
  0
LINE
  5
178
330
1F
100
AcDbEntity
  8
LC-005-101-----0
 62
     7
370
    50
100
AcDbLine
 10
167.247711
 20
337.113282
 30
0.0
 11
183.21677
 21
337.113282
 31
0.0
  0
LINE
  5
179
330
1F
100
AcDbEntity
  8
LC-005-101-----0
 62
     7
370
    50
100
AcDbLine
 10
193.904634
 20
348.65182
 30
0.0
 11
190.404633
 21
348.65182
 31
0.0
  0
LINE
  5
17A
330
1F
100
AcDbEntity
  8
LC-005-101-----0
 62
     7
370
    50
100
AcDbLine
 10
193.654633
 20
351.613282
 30
0.0
 11
193.654633
 21
348.65182
 31
0.0
  0
LINE
  5
17B
330
1F
100
AcDbEntity
  8
LC-005-101-----0
 62
     7
370
    50
100
AcDbLine
 10
148.404634
 20
276.11182
 30
0.0
 11
169.404634
 21
276.11182
 31
0.0
  0
ARC
  5
17C
330
1F
100
AcDbEntity
  8
LC-007-101-RND-0
 62
     7
370
    50
100
AcDbCircle
 10
183.21677
 20
338.113282
 30
0.0
 40
1.0
100
AcDbArc
 50
270.0
 51
345.000001
  0
LINE
  5
17D
330
1F
100
AcDbEntity
  8
LC-005-101-----0
 62
     7
370
    50
100
AcDbLine
 10
185.331098
 20
335.613282
 30
0.0
 11
187.404633
 21
343.35182
 31
0.0
  0
LINE
  5
17E
330
1F
100
AcDbEntity
  8
LC-005-101-----0
 62
     7
370
    50
100
AcDbLine
 10
189.904633
 20
343.35182
 30
0.0
 11
187.404633
 21
343.35182
 31
0.0
  0
LINE
  5
17F
330
1F
100
AcDbEntity
  8
LC-005-101-----0
 62
     7
370
    50
100
AcDbLine
 10
189.904633
 20
343.35182
 30
0.0
 11
189.904633
 21
343.35182
 31
0.0
  0
LINE
  5
180
330
1F
100
AcDbEntity
  8
LC-005-101-----0
 62
     7
370
    50
100
AcDbLine
 10
189.904633
 20
343.35182
 30
0.0
 11
188.904633
 21
344.85182
 31
0.0
  0
LINE
  5
181
330
1F
100
AcDbEntity
  8
LC-005-101-----0
 62
     7
370
    50
100
AcDbLine
 10
190.404633
 20
347.15182
 30
0.0
 11
188.904633
 21
347.15182
 31
0.0
  0
LINE
  5
182
330
1F
100
AcDbEntity
  8
LC-005-101-----0
 62
     7
370
    50
100
AcDbLine
 10
184.182696
 20
337.854463
 30
0.0
 11
186.758151
 21
347.466195
 31
0.0
  0
LINE
  5
183
330
1F
100
AcDbEntity
  8
LC-005-101-----0
 62
     7
370
    50
100
AcDbLine
 10
193.654633
 20
351.613282
 30
0.0
 11
190.658322
 21
351.084951
 31
0.0
  0
ARC
  5
184
330
1F
100
AcDbEntity
  8
LC-005-101-----0
 62
     7
370
    50
100
AcDbCircle
 10
191.58778
 20
346.172099
 30
0.0
 40
4.999999999999986
100
AcDbArc
 50
100.713123
 51
165.0
  0
LINE
  5
185
330
1F
100
AcDbEntity
  8
LC-005-101-----0
 62
     7
370
    50
100
AcDbLine
 10
190.404633
 20
348.65182
 30
0.0
 11
190.404633
 21
347.15182
 31
0.0
  0
LINE
  5
186
330
1F
100
AcDbEntity
  8
LC-005-101-----0
 62
     7
370
    50
100
AcDbLine
 10
188.904633
 20
347.15182
 30
0.0
 11
188.904633
 21
345.516076
 31
0.0
  0
LINE
  5
187
330
1F
100
AcDbEntity
  8
LC-005-101-----0
 62
     7
370
    50
100
AcDbLine
 10
188.904633
 20
345.484573
 30
0.0
 11
188.904633
 21
344.85182
 31
0.0
  0
LINE
  5
188
330
1F
100
AcDbEntity
  8
LC-001-002-----0
 62
     7
370
    50
100
AcDbLine
 10
193.654633
 20
351.613282
 30
0.0
 11
148.404633
 21
351.613281
 31
0.0
  0
LINE
  5
189
330
1F
100
AcDbEntity
  8
LC-005-101-----0
 62
     7
370
    50
100
AcDbLine
 10
169.404634
 20
276.11182
 30
0.0
 11
169.404633
 21
324.745066
 31
0.0
  0
CIRCLE
  5
18A
102
{ACAD_REACTORS
330
3FC
102
}
330
1F
100
AcDbEntity
  8
LC-001-002-----0
 62
     7
370
    50
100
AcDbCircle
 10
190.142281
 20
345.348414
 30
0.0
 40
1.25
  0
INSERT
  5
190
102
{ACAD_REACTORS
330
3FC
102
}
330
1F
100
AcDbEntity
  8
LC-003-005-----0
 62
     7
370
    25
100
AcDbBlockReference
  2
*X77
 10
0.0
 20
0.0
 30
0.0
  0
CIRCLE
  5
191
102
{ACAD_REACTORS
330
3FC
102
}
330
1F
100
AcDbEntity
  8
LC-001-002-----0
 62
     7
370
    50
100
AcDbCircle
 10
106.642281
 20
345.348414
 30
0.0
 40
1.25
  0
LINE
  5
192
102
{ACAD_REACTORS
330
3FE
102
}
330
1F
100
AcDbEntity
  8
LC-001-002-----0
 62
     7
370
    50
100
AcDbLine
 10
93.404633
 20
364.651819
 30
0.0
 11
93.404633
 21
353.041819
 31
0.0
  0
LINE
  5
193
102
{ACAD_REACTORS
330
3FE
102
}
330
1F
100
AcDbEntity
  8
LC-001-002-----0
 62
     7
370
    50
100
AcDbLine
 10
95.904633
 20
359.051819
 30
0.0
 11
95.904633
 21
355.647281
 31
0.0
  0
LINE
  5
194
102
{ACAD_REACTORS
330
3FE
102
}
330
1F
100
AcDbEntity
  8
LC-001-002-----0
 62
     7
370
    50
100
AcDbLine
 10
200.904633
 20
359.051819
 30
0.0
 11
200.904633
 21
355.647281
 31
0.0
  0
LINE
  5
195
102
{ACAD_REACTORS
330
3FE
102
}
330
1F
100
AcDbEntity
  8
LC-001-002-----0
 62
     7
370
    50
100
AcDbLine
 10
203.404633
 20
364.651819
 30
0.0
 11
203.404633
 21
353.041819
 31
0.0
  0
LINE
  5
196
102
{ACAD_REACTORS
330
3FE
102
}
330
1F
100
AcDbEntity
  8
LC-001-002-----0
 62
     7
370
    50
100
AcDbLine
 10
105.654633
 20
348.651819
 30
0.0
 11
105.654633
 21
346.105053
 31
0.0
  0
LINE
  5
197
102
{ACAD_REACTORS
330
3FE
102
}
330
1F
100
AcDbEntity
  8
LC-001-002-----0
 62
     7
370
    50
100
AcDbLine
 10
105.654633
 20
344.610792
 30
0.0
 11
105.654633
 21
341.651819
 31
0.0
  0
LINE
  5
198
102
{ACAD_REACTORS
330
3FE
102
}
330
1F
100
AcDbEntity
  8
LC-001-002-----0
 62
     7
370
    50
100
AcDbLine
 10
94.904633
 20
362.651819
 30
0.0
 11
94.904633
 21
363.480514
 31
0.0
  0
LINE
  5
199
102
{ACAD_REACTORS
330
3FE
102
}
330
1F
100
AcDbEntity
  8
LC-001-002-----0
 62
     7
370
    50
100
AcDbLine
 10
94.904633
 20
363.59716
 30
0.0
 11
94.904633
 21
364.651819
 31
0.0
  0
LINE
  5
19A
102
{ACAD_REACTORS
330
3FE
102
}
330
1F
100
AcDbEntity
  8
LC-001-002-----0
 62
     7
370
    50
100
AcDbLine
 10
95.904633
 20
359.051819
 30
0.0
 11
96.754633
 21
359.901819
 31
0.0
  0
LINE
  5
19B
102
{ACAD_REACTORS
330
3FE
102
}
330
1F
100
AcDbEntity
  8
LC-001-002-----0
 62
     7
370
    50
100
AcDbLine
 10
201.904633
 20
362.651819
 30
0.0
 11
201.904633
 21
364.651819
 31
0.0
  0
LINE
  5
19C
102
{ACAD_REACTORS
330
3FE
102
}
330
1F
100
AcDbEntity
  8
LC-001-002-----0
 62
     7
370
    50
100
AcDbLine
 10
102.904633
 20
351.895694
 30
0.0
 11
102.904633
 21
348.651819
 31
0.0
  0
LINE
  5
19D
102
{ACAD_REACTORS
330
3FE
102
}
330
1F
100
AcDbEntity
  8
LC-001-002-----0
 62
     7
370
    50
100
AcDbLine
 10
102.404633
 20
343.653242
 30
0.0
 11
102.404633
 21
339.651819
 31
0.0
  0
LINE
  5
19E
102
{ACAD_REACTORS
330
3FE
102
}
330
1F
100
AcDbEntity
  8
LC-001-002-----0
 62
     7
370
    50
100
AcDbLine
 10
103.404633
 20
338.651819
 30
0.0
 11
102.404633
 21
339.651819
 31
0.0
  0
LINE
  5
19F
102
{ACAD_REACTORS
330
3FE
102
}
330
1F
100
AcDbEntity
  8
LC-001-002-----0
 62
     7
370
    50
100
AcDbLine
 10
99.904633
 20
347.983369
 30
0.0
 11
102.404633
 21
343.653242
 31
0.0
  0
LINE
  5
1A0
102
{ACAD_REACTORS
330
3FE
102
}
330
1F
100
AcDbEntity
  8
LC-001-002-----0
 62
     7
370
    50
100
AcDbLine
 10
191.154633
 20
348.651819
 30
0.0
 11
191.154633
 21
346.067243
 31
0.0
  0
LINE
  5
1A1
102
{ACAD_REACTORS
330
3FE
102
}
330
1F
100
AcDbEntity
  8
LC-001-002-----0
 62
     7
370
    50
100
AcDbLine
 10
191.154633
 20
344.643496
 30
0.0
 11
191.154633
 21
341.651819
 31
0.0
  0
LINE
  5
1A2
102
{ACAD_REACTORS
330
3FE
102
}
330
1F
100
AcDbEntity
  8
LC-001-002-----0
 62
     7
370
    50
100
AcDbLine
 10
193.904634
 20
351.895693
 30
0.0
 11
193.904634
 21
348.651819
 31
0.0
  0
LINE
  5
1A3
102
{ACAD_REACTORS
330
3FE
102
}
330
1F
100
AcDbEntity
  8
LC-001-002-----0
 62
     7
370
    50
100
AcDbLine
 10
194.404633
 20
343.653242
 30
0.0
 11
194.404633
 21
339.651819
 31
0.0
  0
LINE
  5
1A4
102
{ACAD_REACTORS
330
3FE
102
}
330
1F
100
AcDbEntity
  8
LC-001-002-----0
 62
     7
370
    50
100
AcDbLine
 10
193.404633
 20
338.651819
 30
0.0
 11
194.404633
 21
339.651819
 31
0.0
  0
LINE
  5
1A5
102
{ACAD_REACTORS
330
3FE
102
}
330
1F
100
AcDbEntity
  8
LC-001-002-----0
 62
     7
370
    50
100
AcDbLine
 10
196.904634
 20
347.983369
 30
0.0
 11
194.404633
 21
343.653242
 31
0.0
  0
LINE
  5
1A6
102
{ACAD_REACTORS
330
3FE
102
}
330
1F
100
AcDbEntity
  8
LC-001-002-----0
 62
     7
370
    50
100
AcDbLine
 10
99.904633
 20
347.983369
 30
0.0
 11
99.904633
 21
351.895694
 31
0.0
  0
LINE
  5
1A7
102
{ACAD_REACTORS
330
3FE
102
}
330
1F
100
AcDbEntity
  8
LC-001-002-----0
 62
     7
370
    50
100
AcDbLine
 10
99.904633
 20
351.895694
 30
0.0
 11
93.404633
 21
353.041819
 31
0.0
  0
LINE
  5
1A8
102
{ACAD_REACTORS
330
3FE
102
}
330
1F
100
AcDbEntity
  8
LC-001-002-----0
 62
     7
370
    50
100
AcDbLine
 10
196.904634
 20
351.895694
 30
0.0
 11
203.404633
 21
353.041819
 31
0.0
  0
LINE
  5
1A9
102
{ACAD_REACTORS
330
3FE
102
}
330
1F
100
AcDbEntity
  8
LC-001-002-----0
 62
     7
370
    50
100
AcDbLine
 10
196.904634
 20
347.983369
 30
0.0
 11
196.904634
 21
351.895694
 31
0.0
  0
LINE
  5
1AA
102
{ACAD_REACTORS
330
3FE
102
}
330
1F
100
AcDbEntity
  8
LC-001-002-----0
 62
     7
370
    50
100
AcDbLine
 10
100.425578
 20
354.850117
 30
0.0
 11
95.904633
 21
355.647281
 31
0.0
  0
LINE
  5
1AB
102
{ACAD_REACTORS
330
3FE
102
}
330
1F
100
AcDbEntity
  8
LC-001-002-----0
 62
     7
370
    50
100
AcDbLine
 10
196.383689
 20
354.850117
 30
0.0
 11
200.904633
 21
355.647281
 31
0.0
  0
ARC
  5
1AC
102
{ACAD_REACTORS
330
3FE
102
}
330
1F
100
AcDbEntity
  8
LC-002-002-RND-0
 62
     7
370
    50
100
AcDbCircle
 10
99.904633
 20
351.895694
 30
0.0
 40
3.0
100
AcDbArc
 50
360.0
 51
80.0
  0
ARC
  5
1AD
102
{ACAD_REACTORS
330
3FE
102
}
330
1F
100
AcDbEntity
  8
LC-002-002-RND-0
 62
     7
370
    50
100
AcDbCircle
 10
196.904634
 20
351.895693
 30
0.0
 40
3.000000000000019
100
AcDbArc
 50
100.0
 51
180.0
  0
LINE
  5
1AE
102
{ACAD_REACTORS
330
3FE
102
}
330
1F
100
AcDbEntity
  8
LC-001-002-----0
 62
     7
370
    50
100
AcDbLine
 10
107.104633
 20
341.651819
 30
0.0
 11
107.104633
 21
249.651819
 31
0.0
  0
LINE
  5
1AF
102
{ACAD_REACTORS
330
3FE
102
}
330
1F
100
AcDbEntity
  8
LC-001-002-----0
 62
     7
370
    50
100
AcDbLine
 10
103.404633
 20
338.651819
 30
0.0
 11
103.404633
 21
253.651819
 31
0.0
  0
LINE
  5
1B0
102
{ACAD_REACTORS
330
3FE
102
}
330
1F
100
AcDbEntity
  8
LC-001-002-----0
 62
     7
370
    50
100
AcDbLine
 10
189.704633
 20
341.651819
 30
0.0
 11
189.704633
 21
249.651819
 31
0.0
  0
LINE
  5
1B1
102
{ACAD_REACTORS
330
3FE
102
}
330
1F
100
AcDbEntity
  8
LC-001-002-----0
 62
     7
370
    50
100
AcDbLine
 10
193.404633
 20
338.651819
 30
0.0
 11
193.404633
 21
253.651819
 31
0.0
  0
LINE
  5
1B2
102
{ACAD_REACTORS
330
3FE
102
}
330
1F
100
AcDbEntity
  8
LC-001-002-----0
 62
     7
370
    50
100
AcDbLine
 10
104.47643
 20
249.651819
 30
0.0
 11
192.332837
 21
249.651819
 31
0.0
  0
LINE
  5
1B3
102
{ACAD_REACTORS
330
3FE
102
}
330
1F
100
AcDbEntity
  8
LC-001-002-----0
 62
     7
370
    50
100
AcDbLine
 10
200.904633
 20
359.051819
 30
0.0
 11
200.054633
 21
359.901819
 31
0.0
  0
LINE
  5
1B4
102
{ACAD_REACTORS
330
3FE
102
}
330
1F
100
AcDbEntity
  8
LC-001-002-----0
 62
     7
370
    50
100
AcDbLine
 10
193.404633
 20
253.651819
 30
0.0
 11
192.332837
 21
249.651819
 31
0.0
  0
LINE
  5
1B5
102
{ACAD_REACTORS
330
3FE
102
}
330
1F
100
AcDbEntity
  8
LC-001-002-----0
 62
     7
370
    50
100
AcDbLine
 10
103.404633
 20
253.651819
 30
0.0
 11
104.47643
 21
249.651819
 31
0.0
  0
LINE
  5
1B6
102
{ACAD_REACTORS
330
3FE
102
}
330
1F
100
AcDbEntity
  8
LC-001-002-----0
 62
     7
370
    50
100
AcDbLine
 10
200.904633
 20
355.647281
 30
0.0
 11
95.904633
 21
355.647281
 31
0.0
  0
LINE
  5
1B7
102
{ACAD_REACTORS
330
3FE
102
}
330
1F
100
AcDbEntity
  8
LC-001-002-----0
 62
     7
370
    50
100
AcDbLine
 10
201.242698
 20
362.321951
 30
0.0
 11
200.054633
 21
359.901819
 31
0.0
  0
LINE
  5
1B8
102
{ACAD_REACTORS
330
3FE
102
}
330
1F
100
AcDbEntity
  8
LC-001-002-----0
 62
     7
370
    50
100
AcDbLine
 10
95.577741
 20
362.299193
 30
0.0
 11
96.754633
 21
359.901819
 31
0.0
  0
INSERT
  5
1E9
102
{ACAD_REACTORS
330
3FE
102
}
330
1F
100
AcDbEntity
  8
LC-003-005-----0
 62
     7
370
    25
100
AcDbBlockReference
  2
*X88
 10
0.0
 20
0.0
 30
0.0
  0
INSERT
  5
217
102
{ACAD_REACTORS
330
3FE
102
}
330
1F
100
AcDbEntity
  8
LC-003-005-----0
 62
     7
370
    25
100
AcDbBlockReference
  2
*X99
 10
0.0
 20
0.0
 30
0.0
  0
LINE
  5
218
330
1F
100
AcDbEntity
  8
LC-001-002-----0
 62
     7
370
    50
100
AcDbLine
 10
103.404633
 20
327.650991
 30
0.0
 11
103.404633
 21
254.02959
 31
0.0
  0
LINE
  5
219
330
1F
100
AcDbEntity
  8
LC-001-002-----0
 62
     7
370
    50
100
AcDbLine
 10
102.404633
 20
290.650991
 30
0.0
 11
102.404633
 21
299.60255
 31
0.0
  0
LINE
  5
21A
330
1F
100
AcDbEntity
  8
LC-001-002-----0
 62
     7
370
    50
100
AcDbLine
 10
102.404633
 20
265.650991
 30
0.0
 11
102.404633
 21
274.60255
 31
0.0
  0
LINE
  5
21B
330
1F
100
AcDbEntity
  8
LC-001-002-----0
 62
     7
370
    50
100
AcDbLine
 10
102.404633
 20
278.150991
 30
0.0
 11
102.404633
 21
287.10255
 31
0.0
  0
LINE
  5
21C
330
1F
100
AcDbEntity
  8
LC-001-002-----0
 62
     7
370
    50
100
AcDbLine
 10
102.404633
 20
315.650991
 30
0.0
 11
102.404633
 21
324.60255
 31
0.0
  0
LINE
  5
21D
330
1F
100
AcDbEntity
  8
LC-001-002-----0
 62
     7
370
    50
100
AcDbLine
 10
102.404633
 20
303.150991
 30
0.0
 11
102.404633
 21
312.223778
 31
0.0
  0
LINE
  5
21E
330
1F
100
AcDbEntity
  8
LC-001-002-----0
 62
     7
370
    50
100
AcDbLine
 10
101.904633
 20
252.650991
 30
0.0
 11
94.903092
 21
252.650991
 31
0.0
  0
ARC
  5
21F
330
1F
100
AcDbEntity
  8
LC-002-002-RND-0
 62
     7
370
    50
100
AcDbCircle
 10
101.904633
 20
253.150991
 30
0.0
 40
0.5
100
AcDbArc
 50
270.0
 51
360.0
  0
ARC
  5
220
330
1F
100
AcDbEntity
  8
LC-002-002-RND-0
 62
     7
370
    50
100
AcDbCircle
 10
94.903092
 20
252.150991
 30
0.0
 40
0.5
100
AcDbArc
 50
90.0
 51
261.0
  0
LINE
  5
221
330
1F
100
AcDbEntity
  8
LC-001-002-----0
 62
     7
370
    50
100
AcDbLine
 10
101.982851
 20
250.523435
 30
0.0
 11
94.824875
 21
251.657147
 31
0.0
  0
LINE
  5
222
330
1F
100
AcDbEntity
  8
LC-001-002-----0
 62
     7
370
    50
100
AcDbLine
 10
101.904633
 20
265.150991
 30
0.0
 11
94.903092
 21
265.150991
 31
0.0
  0
LINE
  5
223
330
1F
100
AcDbEntity
  8
LC-001-002-----0
 62
     7
370
    50
100
AcDbLine
 10
101.561068
 20
263.090238
 30
0.0
 11
94.824875
 21
264.157147
 31
0.0
  0
ARC
  5
224
330
1F
100
AcDbEntity
  8
LC-002-002-RND-0
 62
     7
370
    50
100
AcDbCircle
 10
101.904633
 20
265.650991
 30
0.0
 40
0.5
100
AcDbArc
 50
270.0
 51
360.0
  0
ARC
  5
225
330
1F
100
AcDbEntity
  8
LC-002-002-RND-0
 62
     7
370
    50
100
AcDbCircle
 10
101.404633
 20
262.10255
 30
0.0
 40
1.0
100
AcDbArc
 50
360.0
 51
81.0
  0
ARC
  5
226
330
1F
100
AcDbEntity
  8
LC-002-002-RND-0
 62
     7
370
    50
100
AcDbCircle
 10
94.903092
 20
264.650991
 30
0.0
 40
0.5
100
AcDbArc
 50
90.0
 51
261.0
  0
LINE
  5
227
330
1F
100
AcDbEntity
  8
LC-001-002-----0
 62
     7
370
    50
100
AcDbLine
 10
101.904633
 20
277.650991
 30
0.0
 11
94.903092
 21
277.650991
 31
0.0
  0
LINE
  5
228
330
1F
100
AcDbEntity
  8
LC-001-002-----0
 62
     7
370
    50
100
AcDbLine
 10
101.561068
 20
275.590238
 30
0.0
 11
94.824875
 21
276.657147
 31
0.0
  0
ARC
  5
229
330
1F
100
AcDbEntity
  8
LC-002-002-RND-0
 62
     7
370
    50
100
AcDbCircle
 10
101.904633
 20
278.150991
 30
0.0
 40
0.5
100
AcDbArc
 50
270.0
 51
360.0
  0
ARC
  5
22A
330
1F
100
AcDbEntity
  8
LC-002-002-RND-0
 62
     7
370
    50
100
AcDbCircle
 10
101.404633
 20
274.60255
 30
0.0
 40
1.0
100
AcDbArc
 50
360.0
 51
81.0
  0
ARC
  5
22B
330
1F
100
AcDbEntity
  8
LC-002-002-RND-0
 62
     7
370
    50
100
AcDbCircle
 10
94.903092
 20
277.150991
 30
0.0
 40
0.5
100
AcDbArc
 50
90.0
 51
261.0
  0
LINE
  5
22C
330
1F
100
AcDbEntity
  8
LC-001-002-----0
 62
     7
370
    50
100
AcDbLine
 10
101.904633
 20
290.150991
 30
0.0
 11
94.903092
 21
290.150991
 31
0.0
  0
LINE
  5
22D
330
1F
100
AcDbEntity
  8
LC-001-002-----0
 62
     7
370
    50
100
AcDbLine
 10
101.561068
 20
288.090238
 30
0.0
 11
94.824875
 21
289.157147
 31
0.0
  0
ARC
  5
22E
330
1F
100
AcDbEntity
  8
LC-002-002-RND-0
 62
     7
370
    50
100
AcDbCircle
 10
101.904633
 20
290.650991
 30
0.0
 40
0.5
100
AcDbArc
 50
270.0
 51
360.0
  0
ARC
  5
22F
330
1F
100
AcDbEntity
  8
LC-002-002-RND-0
 62
     7
370
    50
100
AcDbCircle
 10
101.404633
 20
287.10255
 30
0.0
 40
1.0
100
AcDbArc
 50
360.0
 51
81.0
  0
ARC
  5
230
330
1F
100
AcDbEntity
  8
LC-002-002-RND-0
 62
     7
370
    50
100
AcDbCircle
 10
94.903092
 20
289.650991
 30
0.0
 40
0.5
100
AcDbArc
 50
90.0
 51
261.0
  0
LINE
  5
231
330
1F
100
AcDbEntity
  8
LC-001-002-----0
 62
     7
370
    50
100
AcDbLine
 10
101.904633
 20
302.650991
 30
0.0
 11
94.903092
 21
302.650991
 31
0.0
  0
LINE
  5
232
330
1F
100
AcDbEntity
  8
LC-001-002-----0
 62
     7
370
    50
100
AcDbLine
 10
101.561068
 20
300.590238
 30
0.0
 11
94.824875
 21
301.657147
 31
0.0
  0
ARC
  5
233
330
1F
100
AcDbEntity
  8
LC-002-002-RND-0
 62
     7
370
    50
100
AcDbCircle
 10
101.904633
 20
303.150991
 30
0.0
 40
0.5
100
AcDbArc
 50
270.0
 51
360.0
  0
ARC
  5
234
330
1F
100
AcDbEntity
  8
LC-002-002-RND-0
 62
     7
370
    50
100
AcDbCircle
 10
101.404633
 20
299.60255
 30
0.0
 40
1.0
100
AcDbArc
 50
360.0
 51
81.0
  0
ARC
  5
235
330
1F
100
AcDbEntity
  8
LC-002-002-RND-0
 62
     7
370
    50
100
AcDbCircle
 10
94.903092
 20
302.150991
 30
0.0
 40
0.5
100
AcDbArc
 50
90.0
 51
261.0
  0
LINE
  5
236
330
1F
100
AcDbEntity
  8
LC-001-002-----0
 62
     7
370
    50
100
AcDbLine
 10
101.904633
 20
315.150991
 30
0.0
 11
94.903092
 21
315.150991
 31
0.0
  0
LINE
  5
237
330
1F
100
AcDbEntity
  8
LC-001-002-----0
 62
     7
370
    50
100
AcDbLine
 10
101.561068
 20
313.090238
 30
0.0
 11
94.824875
 21
314.157147
 31
0.0
  0
ARC
  5
238
330
1F
100
AcDbEntity
  8
LC-002-002-RND-0
 62
     7
370
    50
100
AcDbCircle
 10
101.904633
 20
315.650991
 30
0.0
 40
0.5
100
AcDbArc
 50
270.0
 51
360.0
  0
ARC
  5
239
330
1F
100
AcDbEntity
  8
LC-002-002-RND-0
 62
     7
370
    50
100
AcDbCircle
 10
101.404633
 20
312.10255
 30
0.0
 40
1.0
100
AcDbArc
 50
360.0
 51
81.0
  0
ARC
  5
23A
330
1F
100
AcDbEntity
  8
LC-002-002-RND-0
 62
     7
370
    50
100
AcDbCircle
 10
94.903092
 20
314.650991
 30
0.0
 40
0.5
100
AcDbArc
 50
90.0
 51
261.0
  0
LINE
  5
23B
330
1F
100
AcDbEntity
  8
LC-001-002-----0
 62
     7
370
    50
100
AcDbLine
 10
103.404633
 20
327.650991
 30
0.0
 11
94.903092
 21
327.650991
 31
0.0
  0
LINE
  5
23C
330
1F
100
AcDbEntity
  8
LC-001-002-----0
 62
     7
370
    50
100
AcDbLine
 10
101.561068
 20
325.590238
 30
0.0
 11
94.824875
 21
326.657147
 31
0.0
  0
ARC
  5
23D
330
1F
100
AcDbEntity
  8
LC-002-002-RND-0
 62
     7
370
    50
100
AcDbCircle
 10
101.404633
 20
324.60255
 30
0.0
 40
0.9999999999949978
100
AcDbArc
 50
360.0
 51
81.0
  0
ARC
  5
23E
330
1F
100
AcDbEntity
  8
LC-002-002-RND-0
 62
     7
370
    50
100
AcDbCircle
 10
94.903092
 20
327.150991
 30
0.0
 40
0.5
100
AcDbArc
 50
90.0
 51
261.0
  0
LINE
  5
23F
330
1F
100
AcDbEntity
  8
LC-001-002-----0
 62
     7
370
    50
100
AcDbLine
 10
102.404633
 20
249.650991
 30
0.0
 11
104.47643
 21
249.650991
 31
0.0
  0
LINE
  5
240
330
1F
100
AcDbEntity
  8
LC-001-002-----0
 62
     7
370
    50
100
AcDbLine
 10
102.404633
 20
253.150991
 30
0.0
 11
102.404633
 21
262.10255
 31
0.0
  0
ARC
  5
241
330
1F
100
AcDbEntity
  8
LC-002-002-RND-0
 62
     7
370
    50
100
AcDbCircle
 10
101.904633
 20
250.02959
 30
0.0
 40
0.5
100
AcDbArc
 50
360.0
 51
81.0
  0
LINE
  5
242
330
1F
100
AcDbEntity
  8
LC-001-002-----0
 62
     7
370
    50
100
AcDbLine
 10
103.404633
 20
253.650991
 30
0.0
 11
104.47643
 21
249.650991
 31
0.0
  0
LINE
  5
243
330
1F
100
AcDbEntity
  8
LC-001-002-----0
 62
     7
370
    50
100
AcDbLine
 10
102.404633
 20
250.02959
 30
0.0
 11
102.404633
 21
249.650991
 31
0.0
  0
LINE
  5
244
330
1F
100
AcDbEntity
  8
LC-001-002-----0
 62
     7
370
    50
100
AcDbLine
 10
193.404633
 20
327.650991
 30
0.0
 11
193.404633
 21
254.02959
 31
0.0
  0
LINE
  5
245
330
1F
100
AcDbEntity
  8
LC-001-002-----0
 62
     7
370
    50
100
AcDbLine
 10
194.404633
 20
290.650991
 30
0.0
 11
194.404633
 21
299.60255
 31
0.0
  0
LINE
  5
246
330
1F
100
AcDbEntity
  8
LC-001-002-----0
 62
     7
370
    50
100
AcDbLine
 10
194.404633
 20
265.650991
 30
0.0
 11
194.404633
 21
274.60255
 31
0.0
  0
LINE
  5
247
330
1F
100
AcDbEntity
  8
LC-001-002-----0
 62
     7
370
    50
100
AcDbLine
 10
194.404633
 20
278.150991
 30
0.0
 11
194.404633
 21
287.10255
 31
0.0
  0
LINE
  5
248
330
1F
100
AcDbEntity
  8
LC-001-002-----0
 62
     7
370
    50
100
AcDbLine
 10
194.404633
 20
315.650991
 30
0.0
 11
194.404633
 21
324.60255
 31
0.0
  0
LINE
  5
249
330
1F
100
AcDbEntity
  8
LC-001-002-----0
 62
     7
370
    50
100
AcDbLine
 10
194.404633
 20
303.150991
 30
0.0
 11
194.404633
 21
312.223778
 31
0.0
  0
LINE
  5
24A
330
1F
100
AcDbEntity
  8
LC-001-002-----0
 62
     7
370
    50
100
AcDbLine
 10
194.904633
 20
252.650991
 30
0.0
 11
201.906175
 21
252.650991
 31
0.0
  0
ARC
  5
24B
330
1F
100
AcDbEntity
  8
LC-002-002-RND-0
 62
     7
370
    50
100
AcDbCircle
 10
194.904633
 20
253.150991
 30
0.0
 40
0.5
100
AcDbArc
 50
180.0
 51
270.0
  0
ARC
  5
24C
330
1F
100
AcDbEntity
  8
LC-002-002-RND-0
 62
     7
370
    50
100
AcDbCircle
 10
201.906175
 20
252.150991
 30
0.0
 40
0.4999999999999983
100
AcDbArc
 50
279.0
 51
90.0
  0
LINE
  5
24D
330
1F
100
AcDbEntity
  8
LC-001-002-----0
 62
     7
370
    50
100
AcDbLine
 10
194.826416
 20
250.523435
 30
0.0
 11
201.984392
 21
251.657147
 31
0.0
  0
LINE
  5
24E
330
1F
100
AcDbEntity
  8
LC-001-002-----0
 62
     7
370
    50
100
AcDbLine
 10
194.904633
 20
265.150991
 30
0.0
 11
201.906175
 21
265.150991
 31
0.0
  0
LINE
  5
24F
330
1F
100
AcDbEntity
  8
LC-001-002-----0
 62
     7
370
    50
100
AcDbLine
 10
195.248199
 20
263.090238
 30
0.0
 11
201.984392
 21
264.157147
 31
0.0
  0
ARC
  5
250
330
1F
100
AcDbEntity
  8
LC-002-002-RND-0
 62
     7
370
    50
100
AcDbCircle
 10
194.904633
 20
265.650991
 30
0.0
 40
0.5
100
AcDbArc
 50
180.0
 51
270.0
  0
ARC
  5
251
330
1F
100
AcDbEntity
  8
LC-002-002-RND-0
 62
     7
370
    50
100
AcDbCircle
 10
195.404633
 20
262.10255
 30
0.0
 40
0.9999999999999877
100
AcDbArc
 50
99.0
 51
180.0
  0
ARC
  5
252
330
1F
100
AcDbEntity
  8
LC-002-002-RND-0
 62
     7
370
    50
100
AcDbCircle
 10
201.906175
 20
264.650991
 30
0.0
 40
0.5000000000000263
100
AcDbArc
 50
279.0
 51
90.0
  0
LINE
  5
253
330
1F
100
AcDbEntity
  8
LC-001-002-----0
 62
     7
370
    50
100
AcDbLine
 10
194.904633
 20
277.650991
 30
0.0
 11
201.906175
 21
277.650991
 31
0.0
  0
LINE
  5
254
330
1F
100
AcDbEntity
  8
LC-001-002-----0
 62
     7
370
    50
100
AcDbLine
 10
195.248199
 20
275.590238
 30
0.0
 11
201.984392
 21
276.657147
 31
0.0
  0
ARC
  5
255
330
1F
100
AcDbEntity
  8
LC-002-002-RND-0
 62
     7
370
    50
100
AcDbCircle
 10
194.904633
 20
278.150991
 30
0.0
 40
0.5
100
AcDbArc
 50
180.0
 51
270.0
  0
ARC
  5
256
330
1F
100
AcDbEntity
  8
LC-002-002-RND-0
 62
     7
370
    50
100
AcDbCircle
 10
195.404633
 20
274.60255
 30
0.0
 40
0.9999999999999877
100
AcDbArc
 50
99.0
 51
180.0
  0
ARC
  5
257
330
1F
100
AcDbEntity
  8
LC-002-002-RND-0
 62
     7
370
    50
100
AcDbCircle
 10
201.906175
 20
277.150991
 30
0.0
 40
0.5000000000000263
100
AcDbArc
 50
279.0
 51
90.0
  0
LINE
  5
258
330
1F
100
AcDbEntity
  8
LC-001-002-----0
 62
     7
370
    50
100
AcDbLine
 10
194.904633
 20
290.150991
 30
0.0
 11
201.906175
 21
290.150991
 31
0.0
  0
LINE
  5
259
330
1F
100
AcDbEntity
  8
LC-001-002-----0
 62
     7
370
    50
100
AcDbLine
 10
195.248199
 20
288.090238
 30
0.0
 11
201.984392
 21
289.157147
 31
0.0
  0
ARC
  5
25A
330
1F
100
AcDbEntity
  8
LC-002-002-RND-0
 62
     7
370
    50
100
AcDbCircle
 10
194.904633
 20
290.650991
 30
0.0
 40
0.5
100
AcDbArc
 50
180.0
 51
270.0
  0
ARC
  5
25B
330
1F
100
AcDbEntity
  8
LC-002-002-RND-0
 62
     7
370
    50
100
AcDbCircle
 10
195.404633
 20
287.10255
 30
0.0
 40
0.9999999999999966
100
AcDbArc
 50
99.0
 51
180.0
  0
ARC
  5
25C
330
1F
100
AcDbEntity
  8
LC-002-002-RND-0
 62
     7
370
    50
100
AcDbCircle
 10
201.906175
 20
289.650991
 30
0.0
 40
0.5000000000000352
100
AcDbArc
 50
279.0
 51
90.0
  0
LINE
  5
25D
330
1F
100
AcDbEntity
  8
LC-001-002-----0
 62
     7
370
    50
100
AcDbLine
 10
194.904633
 20
302.650991
 30
0.0
 11
201.906175
 21
302.650991
 31
0.0
  0
LINE
  5
25E
330
1F
100
AcDbEntity
  8
LC-001-002-----0
 62
     7
370
    50
100
AcDbLine
 10
195.248199
 20
300.590238
 30
0.0
 11
201.984392
 21
301.657147
 31
0.0
  0
ARC
  5
25F
330
1F
100
AcDbEntity
  8
LC-002-002-RND-0
 62
     7
370
    50
100
AcDbCircle
 10
194.904633
 20
303.150991
 30
0.0
 40
0.5
100
AcDbArc
 50
180.0
 51
270.0
  0
ARC
  5
260
330
1F
100
AcDbEntity
  8
LC-002-002-RND-0
 62
     7
370
    50
100
AcDbCircle
 10
195.404633
 20
299.60255
 30
0.0
 40
0.9999999999999877
100
AcDbArc
 50
99.0
 51
180.0
  0
ARC
  5
261
330
1F
100
AcDbEntity
  8
LC-002-002-RND-0
 62
     7
370
    50
100
AcDbCircle
 10
201.906175
 20
302.150991
 30
0.0
 40
0.5000000000000263
100
AcDbArc
 50
279.0
 51
90.0
  0
LINE
  5
262
330
1F
100
AcDbEntity
  8
LC-001-002-----0
 62
     7
370
    50
100
AcDbLine
 10
194.904633
 20
315.150991
 30
0.0
 11
201.906175
 21
315.150991
 31
0.0
  0
LINE
  5
263
330
1F
100
AcDbEntity
  8
LC-001-002-----0
 62
     7
370
    50
100
AcDbLine
 10
195.248199
 20
313.090238
 30
0.0
 11
201.984392
 21
314.157147
 31
0.0
  0
ARC
  5
264
330
1F
100
AcDbEntity
  8
LC-002-002-RND-0
 62
     7
370
    50
100
AcDbCircle
 10
194.904633
 20
315.650991
 30
0.0
 40
0.5
100
AcDbArc
 50
180.0
 51
270.0
  0
ARC
  5
265
330
1F
100
AcDbEntity
  8
LC-002-002-RND-0
 62
     7
370
    50
100
AcDbCircle
 10
195.404633
 20
312.10255
 30
0.0
 40
0.9999999999999877
100
AcDbArc
 50
99.0
 51
180.0
  0
ARC
  5
266
330
1F
100
AcDbEntity
  8
LC-002-002-RND-0
 62
     7
370
    50
100
AcDbCircle
 10
201.906175
 20
314.650991
 30
0.0
 40
0.5000000000000263
100
AcDbArc
 50
279.0
 51
90.0
  0
LINE
  5
267
330
1F
100
AcDbEntity
  8
LC-001-002-----0
 62
     7
370
    50
100
AcDbLine
 10
193.404633
 20
327.650991
 30
0.0
 11
201.906175
 21
327.650991
 31
0.0
  0
LINE
  5
268
330
1F
100
AcDbEntity
  8
LC-001-002-----0
 62
     7
370
    50
100
AcDbLine
 10
195.248199
 20
325.590238
 30
0.0
 11
201.984392
 21
326.657147
 31
0.0
  0
ARC
  5
269
330
1F
100
AcDbEntity
  8
LC-002-002-RND-0
 62
     7
370
    50
100
AcDbCircle
 10
195.404633
 20
324.60255
 30
0.0
 40
0.9999999999950436
100
AcDbArc
 50
99.0
 51
180.0
  0
ARC
  5
26A
330
1F
100
AcDbEntity
  8
LC-002-002-RND-0
 62
     7
370
    50
100
AcDbCircle
 10
201.906175
 20
327.150991
 30
0.0
 40
0.5000000000000263
100
AcDbArc
 50
279.0
 51
90.0
  0
LINE
  5
26B
330
1F
100
AcDbEntity
  8
LC-001-002-----0
 62
     7
370
    50
100
AcDbLine
 10
194.404633
 20
253.150991
 30
0.0
 11
194.404633
 21
262.10255
 31
0.0
  0
ARC
  5
26C
330
1F
100
AcDbEntity
  8
LC-002-002-RND-0
 62
     7
370
    50
100
AcDbCircle
 10
194.904633
 20
250.02959
 30
0.0
 40
0.4999999999999983
100
AcDbArc
 50
99.0
 51
180.0
  0
LINE
  5
26D
330
1F
100
AcDbEntity
  8
LC-001-002-----0
 62
     7
370
    50
100
AcDbLine
 10
193.404633
 20
253.650991
 30
0.0
 11
192.372919
 21
249.800581
 31
0.0
  0
LINE
  5
26E
330
1F
100
AcDbEntity
  8
LC-001-002-----0
 62
     7
370
    50
100
AcDbLine
 10
194.404633
 20
250.02959
 30
0.0
 11
194.404633
 21
249.800581
 31
0.0
  0
INSERT
  5
28E
330
1F
100
AcDbEntity
  8
LC-003-005-----0
 62
     7
370
    25
100
AcDbBlockReference
  2
*X1010
 10
0.0
 20
0.0
 30
0.0
  0
INSERT
  5
2AF
330
1F
100
AcDbEntity
  8
LC-003-005-----0
 62
     7
370
    25
100
AcDbBlockReference
  2
*X1111
 10
0.0
 20
0.0
 30
0.0
  0
DIMENSION
  5
2B2
330
1F
100
AcDbEntity
  8
LC-004-003-----0
 62
     7
370
    25
100
AcDbDimension
  2
*D12
 10
202.404635
 20
132.186
 30
0.0
 11
148.404634
 21
162.986
 31
0.0
 70
   160
  1
%%c<>
 71
     5
 42
108.000001
  3
LC-DIM-L-0140-02-02
100
AcDbAlignedDimension
 13
94.404633
 23
252.19022
 33
0.0
 14
202.404635
 24
252.190221
 34
0.0
100
AcDbRotatedDimension
  0
DIMENSION
  5
2C0
330
1F
100
AcDbEntity
  8
LC-004-003-----0
 62
     7
370
    25
100
AcDbDimension
  2
*D13
 10
207.809633
 20
392.0
 30
0.0
 11
148.409633
 21
422.8
 31
0.0
 70
   160
  1
120
 71
     5
 42
118.8
  3
LC-DIM-L-0140-02-02
100
AcDbAlignedDimension
 13
89.009633
 23
373.396205
 33
0.0
 14
207.809633
 24
373.396205
 34
0.0
100
AcDbRotatedDimension
  0
ARC
  5
2CD
330
1F
100
AcDbEntity
  8
LC-002-002-RND-0
 62
     7
370
    50
100
AcDbCircle
 10
336.266787
 20
256.940716
 30
0.0
 40
2.0
100
AcDbArc
 50
180.0
 51
270.0
  0
ARC
  5
2CE
330
1F
100
AcDbEntity
  8
LC-002-002-RND-0
 62
     7
370
    50
100
AcDbCircle
 10
336.266787
 20
368.940716
 30
0.0
 40
2.0
100
AcDbArc
 50
90.0
 51
180.0
  0
LINE
  5
2CF
330
1F
100
AcDbEntity
  8
LC-001-002-----0
 62
     7
370
    50
100
AcDbLine
 10
336.266787
 20
372.340716
 30
0.0
 11
448.266787
 21
372.340716
 31
0.0
  0
LINE
  5
2D0
330
1F
100
AcDbEntity
  8
LC-001-002-----0
 62
     7
370
    50
100
AcDbLine
 10
336.266787
 20
370.940716
 30
0.0
 11
448.266787
 21
370.940716
 31
0.0
  0
LINE
  5
2D1
330
1F
100
AcDbEntity
  8
LC-001-002-----0
 62
     7
370
    50
100
AcDbLine
 10
334.266787
 20
256.940716
 30
0.0
 11
334.266787
 21
368.940716
 31
0.0
  0
LINE
  5
2D2
330
1F
100
AcDbEntity
  8
LC-001-002-----0
 62
     7
370
    50
100
AcDbLine
 10
448.266787
 20
254.940716
 30
0.0
 11
336.266787
 21
254.940716
 31
0.0
  0
LINE
  5
2D3
330
1F
100
AcDbEntity
  8
LC-001-002-----0
 62
     7
370
    50
100
AcDbLine
 10
450.266787
 20
368.940716
 30
0.0
 11
450.266787
 21
256.940716
 31
0.0
  0
LINE
  5
2D4
330
1F
100
AcDbEntity
  8
LC-001-002-----0
 62
     7
370
    50
100
AcDbLine
 10
332.866787
 20
256.940716
 30
0.0
 11
332.866787
 21
368.940716
 31
0.0
  0
LINE
  5
2D5
330
1F
100
AcDbEntity
  8
LC-001-002-----0
 62
     7
370
    50
100
AcDbLine
 10
448.266787
 20
253.540716
 30
0.0
 11
336.266787
 21
253.540716
 31
0.0
  0
LINE
  5
2D6
330
1F
100
AcDbEntity
  8
LC-001-002-----0
 62
     7
370
    50
100
AcDbLine
 10
451.666787
 20
368.940716
 30
0.0
 11
451.666787
 21
256.940716
 31
0.0
  0
ARC
  5
2D7
330
1F
100
AcDbEntity
  8
LC-002-002-RND-0
 62
     7
370
    50
100
AcDbCircle
 10
448.266787
 20
368.940716
 30
0.0
 40
2.0
100
AcDbArc
 50
0.0
 51
90.0
  0
ARC
  5
2D8
330
1F
100
AcDbEntity
  8
LC-002-002-RND-0
 62
     7
370
    50
100
AcDbCircle
 10
448.266787
 20
256.940716
 30
0.0
 40
2.0
100
AcDbArc
 50
270.0
 51
0.0
  0
ARC
  5
2D9
330
1F
100
AcDbEntity
  8
LC-002-002-RND-0
 62
     7
370
    50
100
AcDbCircle
 10
336.266787
 20
368.940716
 30
0.0
 40
3.399999999999977
100
AcDbArc
 50
90.0
 51
180.0
  0
ARC
  5
2DA
330
1F
100
AcDbEntity
  8
LC-002-002-RND-0
 62
     7
370
    50
100
AcDbCircle
 10
448.266787
 20
368.940716
 30
0.0
 40
3.399999999999977
100
AcDbArc
 50
0.0
 51
90.0
  0
ARC
  5
2DB
330
1F
100
AcDbEntity
  8
LC-002-002-RND-0
 62
     7
370
    50
100
AcDbCircle
 10
448.266787
 20
256.940716
 30
0.0
 40
3.400000000000034
100
AcDbArc
 50
270.0
 51
0.0
  0
ARC
  5
2DC
330
1F
100
AcDbEntity
  8
LC-002-002-RND-0
 62
     7
370
    50
100
AcDbCircle
 10
336.266787
 20
256.940716
 30
0.0
 40
3.400000000000034
100
AcDbArc
 50
180.0
 51
270.0
  0
LINE
  5
2DD
330
1F
100
AcDbEntity
  8
LC-006-006-MLN-0
 62
     7
370
    25
100
AcDbLine
 10
392.266787
 20
243.540716
 30
0.0
 11
392.266787
 21
331.610425
 31
0.0
  0
LINE
  5
2DE
330
1F
100
AcDbEntity
  8
LC-006-006-MLN-0
 62
     7
370
    25
100
AcDbLine
 10
324.766787
 20
312.940716
 30
0.0
 11
402.266787
 21
312.940716
 31
0.0
  0
LINE
  5
2DF
330
1F
100
AcDbEntity
  8
LC-006-006-MLN-0
 62
     7
370
    25
100
AcDbLine
 10
392.266787
 20
331.960151
 30
0.0
 11
392.266787
 21
382.340716
 31
0.0
  0
LINE
  5
2E0
330
1F
100
AcDbEntity
  8
LC-006-006-MLN-0
 62
     7
370
    25
100
AcDbLine
 10
459.766787
 20
312.940716
 30
0.0
 11
400.766787
 21
312.940716
 31
0.0
  0
LINE
  5
2E1
330
1F
100
AcDbEntity
  8
LC-001-002-----0
 62
     7
370
    25
100
AcDbLine
 10
110.598405
 20
400.08
 30
0.0
 11
125.598405
 21
400.08
 31
0.0
  0
LINE
  5
2E2
330
1F
100
AcDbEntity
  8
LC-001-002-----0
 62
     7
370
    25
100
AcDbLine
 10
110.598405
 20
415.08
 30
0.0
 11
125.598405
 21
415.08
 31
0.0
  0
LINE
  5
2E3
330
1F
100
AcDbEntity
  8
LC-001-002-----0
 62
     7
370
    25
100
AcDbLine
 10
110.598405
 20
400.08
 30
0.0
 11
110.598405
 21
415.08
 31
0.0
  0
LINE
  5
2E4
330
1F
100
AcDbEntity
  8
LC-001-002-----0
 62
     7
370
    25
100
AcDbLine
 10
125.598405
 20
400.08
 30
0.0
 11
125.598405
 21
415.08
 31
0.0
  0
DIMENSION
  5
2E5
330
1F
100
AcDbEntity
  8
LC-004-003-----0
 62
     7
370
    25
100
AcDbDimension
  2
*D14
 10
193.404633
 20
205.000581
 30
0.0
 11
148.404633
 21
235.800581
 31
0.0
 70
   160
  1
%%c<>
 71
     5
 42
90.0
  3
LC-DIM-L-0140-02-02
100
AcDbAlignedDimension
 13
103.404633
 23
254.02959
 33
0.0
 14
193.404633
 24
254.02959
 34
0.0
100
AcDbRotatedDimension
  0
DIMENSION
  5
2F2
330
1F
100
AcDbEntity
  8
LC-004-003-----0
 62
     7
370
    25
100
AcDbDimension
  2
*D15
 10
312.648066
 20
249.650991
 30
0.0
 11
281.848066
 21
315.732
 31
0.0
 70
   160
  1
124
 71
     5
 42
124.445214
 53
90.0
  3
LC-DIM-L-0140-02-02
100
AcDbAlignedDimension
 13
207.109633
 23
374.096205
 33
0.0
 14
194.404633
 24
249.650991
 34
0.0
 50
90.0
100
AcDbRotatedDimension
  0
LINE
  5
2FF
102
{ACAD_REACTORS
330
3FF
102
}
330
1F
100
AcDbEntity
  8
LC-001-002-----0
 62
     7
370
    50
100
AcDbLine
 10
337.766787
 20
370.440716
 30
0.0
 11
446.766787
 21
370.440716
 31
0.0
  0
LINE
  5
300
102
{ACAD_REACTORS
330
3FF
102
}
330
1F
100
AcDbEntity
  8
LC-001-002-----0
 62
     7
370
    50
100
AcDbLine
 10
449.766787
 20
367.440716
 30
0.0
 11
449.766787
 21
258.440716
 31
0.0
  0
LINE
  5
301
102
{ACAD_REACTORS
330
3FF
102
}
330
1F
100
AcDbEntity
  8
LC-001-002-----0
 62
     7
370
    50
100
AcDbLine
 10
446.766787
 20
255.440716
 30
0.0
 11
337.766787
 21
255.440716
 31
0.0
  0
LINE
  5
302
102
{ACAD_REACTORS
330
3FF
102
}
330
1F
100
AcDbEntity
  8
LC-001-002-----0
 62
     7
370
    50
100
AcDbLine
 10
334.766787
 20
258.440716
 30
0.0
 11
334.766787
 21
367.440716
 31
0.0
  0
ARC
  5
303
102
{ACAD_REACTORS
330
3FF
102
}
330
1F
100
AcDbEntity
  8
LC-002-002-RND-0
 62
     7
370
    50
100
AcDbCircle
 10
337.766787
 20
367.440716
 30
0.0
 40
3.0
100
AcDbArc
 50
90.0
 51
180.0
  0
ARC
  5
304
102
{ACAD_REACTORS
330
3FF
102
}
330
1F
100
AcDbEntity
  8
LC-002-002-RND-0
 62
     7
370
    50
100
AcDbCircle
 10
446.766787
 20
367.440716
 30
0.0
 40
3.0
100
AcDbArc
 50
0.0
 51
90.0
  0
ARC
  5
305
102
{ACAD_REACTORS
330
3FF
102
}
330
1F
100
AcDbEntity
  8
LC-002-002-RND-0
 62
     7
370
    50
100
AcDbCircle
 10
446.766787
 20
258.440716
 30
0.0
 40
3.0
100
AcDbArc
 50
270.0
 51
0.0
  0
ARC
  5
306
102
{ACAD_REACTORS
330
3FF
102
}
330
1F
100
AcDbEntity
  8
LC-002-002-RND-0
 62
     7
370
    50
100
AcDbCircle
 10
337.766787
 20
258.440716
 30
0.0
 40
3.0
100
AcDbArc
 50
180.0
 51
270.0
  0
ARC
  5
307
102
{ACAD_REACTORS
330
3FF
102
}
330
1F
100
AcDbEntity
  8
LC-001-002-----0
 62
     7
370
    50
100
AcDbCircle
 10
392.266787
 20
312.940716
 30
0.0
 40
27.75000000000002
100
AcDbArc
 50
150.307541
 51
209.692459
  0
ARC
  5
308
102
{ACAD_REACTORS
330
3FF
102
}
330
1F
100
AcDbEntity
  8
LC-001-002-----0
 62
     7
370
    50
100
AcDbCircle
 10
392.266787
 20
312.940716
 30
0.0
 40
14.24999999999994
100
AcDbArc
 50
162.69655
 51
197.30345
  0
ARC
  5
309
102
{ACAD_REACTORS
330
3FF
102
}
330
1F
100
AcDbEntity
  8
LC-001-002-----0
 62
     7
370
    50
100
AcDbCircle
 10
375.3201
 20
307.661291
 30
0.0
 40
3.499999999999973
100
AcDbArc
 50
197.30345
 51
315.0
  0
LINE
  5
30C
102
{ACAD_REACTORS
330
3FF
102
}
330
1F
100
AcDbEntity
  8
LC-008-007-KH--0
 62
     7
370
    13
100
AcDbLine
 10
355.623474
 20
342.51296
 30
0.0
 11
355.623474
 21
342.51296
 31
0.0
  0
LINE
  5
30D
102
{ACAD_REACTORS
330
3FF
102
}
330
1F
100
AcDbEntity
  8
LC-008-007-KH--0
 62
     7
370
    13
100
AcDbLine
 10
362.694542
 20
349.584028
 30
0.0
 11
362.694542
 21
349.584028
 31
0.0
  0
ARC
  5
30E
102
{ACAD_REACTORS
330
3FF
102
}
330
1F
100
AcDbEntity
  8
LC-001-002-----0
 62
     7
370
    50
100
AcDbCircle
 10
392.266787
 20
312.940716
 30
0.0
 40
34.74999999999997
100
AcDbArc
 50
150.307541
 51
209.692459
  0
ARC
  5
30F
102
{ACAD_REACTORS
330
3FF
102
}
330
1F
100
AcDbEntity
  8
LC-002-002-RND-0
 62
     7
370
    50
100
AcDbCircle
 10
375.3201
 20
307.661291
 30
0.0
 40
3.499999999999988
100
AcDbArc
 50
315.0
 51
17.30345
  0
ARC
  5
310
102
{ACAD_REACTORS
330
3FF
102
}
330
1F
100
AcDbEntity
  8
LC-001-002-----0
 62
     7
370
    50
100
AcDbCircle
 10
392.266787
 20
312.940716
 30
0.0
 40
21.24999999999992
100
AcDbArc
 50
162.69655
 51
197.30345
  0
LINE
  5
311
330
1F
100
AcDbEntity
  8
LC-001-002-----0
 62
     7
370
    50
100
AcDbLine
 10
100.345716
 20
362.096205
 30
0.0
 11
100.628456
 21
372.893607
 31
0.0
  0
ARC
  5
312
102
{ACAD_REACTORS
330
3FF
102
}
330
1F
100
AcDbEntity
  8
LC-002-002-RND-0
 62
     7
370
    50
100
AcDbCircle
 10
365.120014
 20
297.461205
 30
0.0
 40
3.499999999999952
100
AcDbArc
 50
209.692459
 51
29.692459
  0
ARC
  5
313
102
{ACAD_REACTORS
330
3FF
102
}
330
1F
100
AcDbEntity
  8
LC-002-002-RND-0
 62
     7
370
    50
100
AcDbCircle
 10
365.120014
 20
328.420226
 30
0.0
 40
3.499999999999952
100
AcDbArc
 50
330.307541
 51
150.307541
  0
ARC
  5
314
102
{ACAD_REACTORS
330
3FF
102
}
330
1F
100
AcDbEntity
  8
LC-001-002-----0
 62
     7
370
    50
100
AcDbCircle
 10
375.3201
 20
318.22014
 30
0.0
 40
3.500000000000028
100
AcDbArc
 50
342.69655
 51
45.0
  0
LINE
  5
315
330
1F
100
AcDbEntity
  8
LC-001-002-----0
 62
     7
370
    50
100
AcDbLine
 10
107.95875
 20
362.096205
 30
0.0
 11
107.682218
 21
372.656544
 31
0.0
  0
ARC
  5
316
102
{ACAD_REACTORS
330
3FF
102
}
330
1F
100
AcDbEntity
  8
LC-002-002-RND-0
 62
     7
370
    50
100
AcDbCircle
 10
375.3201
 20
318.22014
 30
0.0
 40
3.500000000000068
100
AcDbArc
 50
45.0
 51
162.69655
  0
LINE
  5
317
330
1F
100
AcDbEntity
  8
LC-001-002-----0
 62
     7
370
    50
100
AcDbLine
 10
113.35463
 20
362.096205
 30
0.0
 11
113.628456
 21
372.55319
 31
0.0
  0
LINE
  5
318
330
1F
100
AcDbEntity
  8
LC-001-002-----0
 62
     7
370
    50
100
AcDbLine
 10
120.949836
 20
362.096205
 30
0.0
 11
120.682218
 21
372.316127
 31
0.0
  0
LINE
  5
319
330
1F
100
AcDbEntity
  8
LC-001-002-----0
 62
     7
370
    50
100
AcDbLine
 10
126.863887
 20
362.096205
 30
0.0
 11
127.128456
 21
372.19968
 31
0.0
  0
LINE
  5
31A
330
1F
100
AcDbEntity
  8
LC-001-002-----0
 62
     7
370
    50
100
AcDbLine
 10
134.440579
 20
362.096205
 30
0.0
 11
134.182218
 21
371.962617
 31
0.0
  0
ARC
  5
31B
102
{ACAD_REACTORS
330
3FF
102
}
330
1F
100
AcDbEntity
  8
LC-001-002-----0
 62
     7
370
    50
100
AcDbCircle
 10
392.266787
 20
312.940716
 30
0.0
 40
47.74999999999989
100
AcDbArc
 50
145.745139
 51
214.254861
  0
ARC
  5
31C
102
{ACAD_REACTORS
330
3FF
102
}
330
1F
100
AcDbEntity
  8
LC-001-002-----0
 62
     7
370
    50
100
AcDbCircle
 10
392.266787
 20
312.940716
 30
0.0
 40
40.74999999999989
100
AcDbArc
 50
145.745139
 51
214.254861
  0
ARC
  5
31D
330
1F
100
AcDbEntity
  8
LC-002-002-RND-0
 62
     7
370
    50
100
AcDbCircle
 10
141.271465
 20
367.096205
 30
0.0
 40
2.0
100
AcDbArc
 50
90.0
 51
167.905243
  0
LINE
  5
31E
330
1F
100
AcDbEntity
  8
LC-001-002-----0
 62
     7
370
    50
100
AcDbLine
 10
141.271465
 20
369.096205
 30
0.0
 11
148.404633
 21
369.096205
 31
0.0
  0
ARC
  5
31F
330
1F
100
AcDbEntity
  8
LC-002-002-RND-0
 62
     7
370
    50
100
AcDbCircle
 10
108.681875
 20
372.682721
 30
0.0
 40
1.000000000000044
100
AcDbArc
 50
88.5
 51
181.5
  0
ARC
  5
320
330
1F
100
AcDbEntity
  8
LC-002-002-RND-0
 62
     7
370
    50
100
AcDbCircle
 10
99.628799
 20
372.919784
 30
0.0
 40
0.9999999999999882
100
AcDbArc
 50
358.5
 51
88.5
  0
ARC
  5
321
330
1F
100
AcDbEntity
  8
LC-002-002-RND-0
 62
     7
370
    50
100
AcDbCircle
 10
112.628799
 20
372.579367
 30
0.0
 40
0.9999999999999852
100
AcDbArc
 50
358.5
 51
88.5
  0
LINE
  5
322
102
{ACAD_REACTORS
330
3FF
102
}
330
1F
100
AcDbEntity
  8
LC-008-007-KH--0
 62
     7
370
    13
100
AcDbLine
 10
412.461508
 20
340.206504
 30
0.0
 11
412.461508
 21
340.206504
 31
0.0
  0
LINE
  5
323
102
{ACAD_REACTORS
330
3FF
102
}
330
1F
100
AcDbEntity
  8
LC-008-007-KH--0
 62
     7
370
    13
100
AcDbLine
 10
402.842418
 20
295.294016
 30
0.0
 11
402.842418
 21
295.294016
 31
0.0
  0
LINE
  5
324
102
{ACAD_REACTORS
330
3FF
102
}
330
1F
100
AcDbEntity
  8
LC-008-007-KH--0
 62
     7
370
    13
100
AcDbLine
 10
412.461508
 20
285.674927
 30
0.0
 11
412.461508
 21
285.674927
 31
0.0
  0
LINE
  5
325
102
{ACAD_REACTORS
330
3FF
102
}
330
1F
100
AcDbEntity
  8
LC-008-007-KH--0
 62
     7
370
    13
100
AcDbLine
 10
355.623474
 20
283.368471
 30
0.0
 11
355.623474
 21
283.368471
 31
0.0
  0
LINE
  5
326
102
{ACAD_REACTORS
330
3FF
102
}
330
1F
100
AcDbEntity
  8
LC-008-007-KH--0
 62
     7
370
    13
100
AcDbLine
 10
428.910099
 20
283.368471
 30
0.0
 11
428.910099
 21
283.368471
 31
0.0
  0
LINE
  5
327
102
{ACAD_REACTORS
330
3FF
102
}
330
1F
100
AcDbEntity
  8
LC-008-007-KH--0
 62
     7
370
    13
100
AcDbLine
 10
402.842418
 20
330.587415
 30
0.0
 11
402.842418
 21
330.587415
 31
0.0
  0
LINE
  5
328
102
{ACAD_REACTORS
330
3FF
102
}
330
1F
100
AcDbEntity
  8
LC-008-007-KH--0
 62
     7
370
    13
100
AcDbLine
 10
421.839031
 20
349.584028
 30
0.0
 11
421.839031
 21
349.584028
 31
0.0
  0
LINE
  5
329
102
{ACAD_REACTORS
330
3FF
102
}
330
1F
100
AcDbEntity
  8
LC-008-007-KH--0
 62
     7
370
    13
100
AcDbLine
 10
374.620087
 20
323.516348
 30
0.0
 11
374.620087
 21
323.516348
 31
0.0
  0
LINE
  5
32A
102
{ACAD_REACTORS
330
3FF
102
}
330
1F
100
AcDbEntity
  8
LC-008-007-KH--0
 62
     7
370
    13
100
AcDbLine
 10
365.000998
 20
333.135437
 30
0.0
 11
365.000998
 21
333.135437
 31
0.0
  0
ARC
  5
32B
330
1F
100
AcDbEntity
  8
LC-002-002-RND-0
 62
     7
370
    50
100
AcDbCircle
 10
121.681875
 20
372.342304
 30
0.0
 40
0.9999999999999299
100
AcDbArc
 50
88.5
 51
181.5
  0
ARC
  5
32C
330
1F
100
AcDbEntity
  8
LC-002-002-RND-0
 62
     7
370
    50
100
AcDbCircle
 10
126.128799
 20
372.225857
 30
0.0
 40
0.9999999999999852
100
AcDbArc
 50
358.5
 51
88.5
  0
ARC
  5
32D
102
{ACAD_REACTORS
330
3FF
102
}
330
1F
100
AcDbEntity
  8
LC-002-002-RND-0
 62
     7
370
    50
100
AcDbCircle
 10
355.692303
 20
337.847937
 30
0.0
 40
3.499999999999988
100
AcDbArc
 50
45.0
 51
145.745139
  0
ARC
  5
32E
330
1F
100
AcDbEntity
  8
LC-002-002-RND-0
 62
     7
370
    50
100
AcDbCircle
 10
135.181875
 20
371.988794
 30
0.0
 40
0.9999999999999299
100
AcDbArc
 50
88.5
 51
181.5
  0
LINE
  5
32F
330
1F
100
AcDbEntity
  8
LC-001-002-----0
 62
     7
370
    50
100
AcDbLine
 10
95.104633
 20
366.596205
 30
0.0
 11
96.104633
 21
365.596205
 31
0.0
  0
LINE
  5
330
102
{ACAD_REACTORS
330
3FF
102
}
330
1F
100
AcDbEntity
  8
LC-001-002-----0
 62
     7
370
    50
100
AcDbLine
 10
358.167177
 20
340.322811
 30
0.0
 11
358.167177
 21
340.322811
 31
0.0
  0
ARC
  5
331
102
{ACAD_REACTORS
330
3FF
102
}
330
1F
100
AcDbEntity
  8
LC-002-002-RND-0
 62
     7
370
    50
100
AcDbCircle
 10
355.692303
 20
337.847937
 30
0.0
 40
3.500000000000027
100
AcDbArc
 50
325.745139
 51
45.0
  0
LINE
  5
332
330
1F
100
AcDbEntity
  8
LC-001-002-----0
 62
     7
370
    50
100
AcDbLine
 10
92.904633
 20
374.096205
 30
0.0
 11
148.404633
 21
372.642886
 31
0.0
  0
LINE
  5
333
330
1F
100
AcDbEntity
  8
LC-001-002-----0
 62
     7
370
    50
100
AcDbLine
 10
90.904633
 20
369.096205
 30
0.0
 11
90.904633
 21
372.096205
 31
0.0
  0
LINE
  5
334
330
1F
100
AcDbEntity
  8
LC-001-002-----0
 62
     7
370
    50
100
AcDbLine
 10
90.904633
 20
369.096205
 30
0.0
 11
95.104633
 21
369.096205
 31
0.0
  0
LINE
  5
335
330
1F
100
AcDbEntity
  8
LC-001-002-----0
 62
     7
370
    50
100
AcDbLine
 10
98.054633
 20
365.596205
 30
0.0
 11
98.054633
 21
362.096205
 31
0.0
  0
LINE
  5
336
330
1F
100
AcDbEntity
  8
LC-001-002-----0
 62
     7
370
    50
100
AcDbLine
 10
98.054633
 20
362.096205
 30
0.0
 11
148.404633
 21
362.096205
 31
0.0
  0
LINE
  5
337
330
1F
100
AcDbEntity
  8
LC-001-002-----0
 62
     7
370
    50
100
AcDbLine
 10
95.104633
 20
369.096205
 30
0.0
 11
95.104633
 21
366.596205
 31
0.0
  0
LINE
  5
338
330
1F
100
AcDbEntity
  8
LC-001-002-----0
 62
     7
370
    50
100
AcDbLine
 10
96.104633
 20
365.596205
 30
0.0
 11
98.054633
 21
365.596205
 31
0.0
  0
ARC
  5
339
330
1F
100
AcDbEntity
  8
LC-002-002-RND-0
 62
     7
370
    50
100
AcDbCircle
 10
92.904633
 20
372.096205
 30
0.0
 40
2.0
100
AcDbArc
 50
90.0
 51
180.0
  0
LINE
  5
33A
330
1F
100
AcDbEntity
  8
LC-001-002-----0
 62
     7
370
    50
100
AcDbLine
 10
92.904633
 20
374.096205
 30
0.0
 11
148.404633
 21
374.096205
 31
0.0
  0
ARC
  5
33B
102
{ACAD_REACTORS
330
3FF
102
}
330
1F
100
AcDbEntity
  8
LC-002-002-RND-0
 62
     7
370
    50
100
AcDbCircle
 10
355.692303
 20
288.033494
 30
0.0
 40
3.50000000000001
100
AcDbArc
 50
214.254861
 51
34.254861
  0
ARC
  5
33C
102
{ACAD_REACTORS
330
3FF
102
}
330
1F
100
AcDbEntity
  8
LC-001-002-----0
 62
     7
370
    50
100
AcDbCircle
 10
392.266787
 20
312.940716
 30
0.0
 40
47.74999999999986
100
AcDbArc
 50
235.745139
 51
304.254861
  0
ARC
  5
33D
102
{ACAD_REACTORS
330
3FF
102
}
330
1F
100
AcDbEntity
  8
LC-001-002-----0
 62
     7
370
    50
100
AcDbCircle
 10
392.266787
 20
312.940716
 30
0.0
 40
47.74999999999995
100
AcDbArc
 50
325.745139
 51
34.254861
  0
ARC
  5
33E
102
{ACAD_REACTORS
330
3FF
102
}
330
1F
100
AcDbEntity
  8
LC-001-002-----0
 62
     7
370
    50
100
AcDbCircle
 10
392.266787
 20
312.940716
 30
0.0
 40
47.74999999999995
100
AcDbArc
 50
55.745139
 51
124.254861
  0
ARC
  5
33F
102
{ACAD_REACTORS
330
3FF
102
}
330
1F
100
AcDbEntity
  8
LC-001-002-----0
 62
     7
370
    50
100
AcDbCircle
 10
392.266787
 20
312.940716
 30
0.0
 40
40.74999999999987
100
AcDbArc
 50
235.745139
 51
304.254861
  0
ARC
  5
340
102
{ACAD_REACTORS
330
3FF
102
}
330
1F
100
AcDbEntity
  8
LC-001-002-----0
 62
     7
370
    50
100
AcDbCircle
 10
392.266787
 20
312.940716
 30
0.0
 40
40.74999999999996
100
AcDbArc
 50
325.745139
 51
34.254861
  0
ARC
  5
341
102
{ACAD_REACTORS
330
3FF
102
}
330
1F
100
AcDbEntity
  8
LC-001-002-----0
 62
     7
370
    50
100
AcDbCircle
 10
392.266787
 20
312.940716
 30
0.0
 40
40.74999999999987
100
AcDbArc
 50
55.745139
 51
124.254861
  0
ARC
  5
342
102
{ACAD_REACTORS
330
3FF
102
}
330
1F
100
AcDbEntity
  8
LC-002-002-RND-0
 62
     7
370
    50
100
AcDbCircle
 10
367.359565
 20
276.366232
 30
0.0
 40
3.499999999999963
100
AcDbArc
 50
55.745139
 51
235.745139
  0
ARC
  5
343
102
{ACAD_REACTORS
330
3FF
102
}
330
1F
100
AcDbEntity
  8
LC-002-002-RND-0
 62
     7
370
    50
100
AcDbCircle
 10
428.84127
 20
288.033494
 30
0.0
 40
3.500000000000042
100
AcDbArc
 50
145.745139
 51
325.745139
  0
ARC
  5
344
102
{ACAD_REACTORS
330
3FF
102
}
330
1F
100
AcDbEntity
  8
LC-002-002-RND-0
 62
     7
370
    50
100
AcDbCircle
 10
417.174008
 20
349.515199
 30
0.0
 40
3.500000000000089
100
AcDbArc
 50
235.745139
 51
55.745139
  0
ARC
  5
345
102
{ACAD_REACTORS
330
3FF
102
}
330
1F
100
AcDbEntity
  8
LC-002-002-RND-0
 62
     7
370
    50
100
AcDbCircle
 10
417.174008
 20
276.366232
 30
0.0
 40
3.499999999999995
100
AcDbArc
 50
304.254861
 51
124.254861
  0
ARC
  5
346
102
{ACAD_REACTORS
330
3FF
102
}
330
1F
100
AcDbEntity
  8
LC-002-002-RND-0
 62
     7
370
    50
100
AcDbCircle
 10
428.84127
 20
337.847937
 30
0.0
 40
3.500000000000027
100
AcDbArc
 50
34.254861
 51
214.254861
  0
ARC
  5
347
102
{ACAD_REACTORS
330
3FF
102
}
330
1F
100
AcDbEntity
  8
LC-002-002-RND-0
 62
     7
370
    50
100
AcDbCircle
 10
367.359565
 20
349.515199
 30
0.0
 40
3.500000000000027
100
AcDbArc
 50
124.254861
 51
304.254861
  0
ARC
  5
348
102
{ACAD_REACTORS
330
3FF
102
}
330
1F
100
AcDbEntity
  8
LC-001-002-----0
 62
     7
370
    50
100
AcDbCircle
 10
392.266787
 20
312.940716
 30
0.0
 40
27.75000000000002
100
AcDbArc
 50
240.307541
 51
299.692459
  0
ARC
  5
349
102
{ACAD_REACTORS
330
3FF
102
}
330
1F
100
AcDbEntity
  8
LC-001-002-----0
 62
     7
370
    50
100
AcDbCircle
 10
392.266787
 20
312.940716
 30
0.0
 40
27.75000000000002
100
AcDbArc
 50
330.307541
 51
29.692459
  0
ARC
  5
34A
102
{ACAD_REACTORS
330
3FF
102
}
330
1F
100
AcDbEntity
  8
LC-001-002-----0
 62
     7
370
    50
100
AcDbCircle
 10
392.266787
 20
312.940716
 30
0.0
 40
27.75000000000002
100
AcDbArc
 50
60.307541
 51
119.692459
  0
ARC
  5
34B
102
{ACAD_REACTORS
330
3FF
102
}
330
1F
100
AcDbEntity
  8
LC-001-002-----0
 62
     7
370
    50
100
AcDbCircle
 10
392.266787
 20
312.940716
 30
0.0
 40
34.74999999999998
100
AcDbArc
 50
240.307541
 51
299.692459
  0
ARC
  5
34C
102
{ACAD_REACTORS
330
3FF
102
}
330
1F
100
AcDbEntity
  8
LC-001-002-----0
 62
     7
370
    50
100
AcDbCircle
 10
392.266787
 20
312.940716
 30
0.0
 40
34.75000000000004
100
AcDbArc
 50
330.307541
 51
29.692459
  0
ARC
  5
34D
102
{ACAD_REACTORS
330
3FF
102
}
330
1F
100
AcDbEntity
  8
LC-001-002-----0
 62
     7
370
    50
100
AcDbCircle
 10
392.266787
 20
312.940716
 30
0.0
 40
34.75000000000011
100
AcDbArc
 50
60.307541
 51
119.692459
  0
ARC
  5
34E
102
{ACAD_REACTORS
330
3FF
102
}
330
1F
100
AcDbEntity
  8
LC-002-002-RND-0
 62
     7
370
    50
100
AcDbCircle
 10
376.787276
 20
285.793943
 30
0.0
 40
3.500000000000029
100
AcDbArc
 50
60.307541
 51
240.307541
  0
ARC
  5
34F
102
{ACAD_REACTORS
330
3FF
102
}
330
1F
100
AcDbEntity
  8
LC-002-002-RND-0
 62
     7
370
    50
100
AcDbCircle
 10
419.413559
 20
297.461205
 30
0.0
 40
3.49999999999998
100
AcDbArc
 50
150.307541
 51
330.307541
  0
ARC
  5
350
102
{ACAD_REACTORS
330
3FF
102
}
330
1F
100
AcDbEntity
  8
LC-002-002-RND-0
 62
     7
370
    50
100
AcDbCircle
 10
407.746297
 20
340.087488
 30
0.0
 40
3.49999999999998
100
AcDbArc
 50
240.307541
 51
60.307541
  0
ARC
  5
351
102
{ACAD_REACTORS
330
3FF
102
}
330
1F
100
AcDbEntity
  8
LC-002-002-RND-0
 62
     7
370
    50
100
AcDbCircle
 10
407.746297
 20
285.793943
 30
0.0
 40
3.49999999999998
100
AcDbArc
 50
299.692459
 51
119.692459
  0
ARC
  5
352
102
{ACAD_REACTORS
330
3FF
102
}
330
1F
100
AcDbEntity
  8
LC-002-002-RND-0
 62
     7
370
    50
100
AcDbCircle
 10
419.413559
 20
328.420226
 30
0.0
 40
3.49999999999998
100
AcDbArc
 50
29.692459
 51
209.692459
  0
ARC
  5
353
102
{ACAD_REACTORS
330
3FF
102
}
330
1F
100
AcDbEntity
  8
LC-002-002-RND-0
 62
     7
370
    50
100
AcDbCircle
 10
376.787276
 20
340.087488
 30
0.0
 40
3.49999999999998
100
AcDbArc
 50
119.692459
 51
299.692459
  0
ARC
  5
354
102
{ACAD_REACTORS
330
3FF
102
}
330
1F
100
AcDbEntity
  8
LC-002-002-RND-0
 62
     7
370
    50
100
AcDbCircle
 10
386.987362
 20
295.994029
 30
0.0
 40
3.49999999999999
100
AcDbArc
 50
72.69655
 51
252.69655
  0
ARC
  5
355
102
{ACAD_REACTORS
330
3FF
102
}
330
1F
100
AcDbEntity
  8
LC-002-002-RND-0
 62
     7
370
    50
100
AcDbCircle
 10
409.213473
 20
307.661291
 30
0.0
 40
3.499999999999953
100
AcDbArc
 50
162.69655
 51
342.69655
  0
ARC
  5
356
102
{ACAD_REACTORS
330
3FF
102
}
330
1F
100
AcDbEntity
  8
LC-002-002-RND-0
 62
     7
370
    50
100
AcDbCircle
 10
397.546211
 20
329.887402
 30
0.0
 40
3.499999999999919
100
AcDbArc
 50
252.69655
 51
72.69655
  0
ARC
  5
357
102
{ACAD_REACTORS
330
3FF
102
}
330
1F
100
AcDbEntity
  8
LC-001-002-----0
 62
     7
370
    50
100
AcDbCircle
 10
392.266787
 20
312.940716
 30
0.0
 40
21.24999999999987
100
AcDbArc
 50
252.69655
 51
287.30345
  0
ARC
  5
358
102
{ACAD_REACTORS
330
3FF
102
}
330
1F
100
AcDbEntity
  8
LC-001-002-----0
 62
     7
370
    50
100
AcDbCircle
 10
392.266787
 20
312.940716
 30
0.0
 40
21.25000000000001
100
AcDbArc
 50
342.69655
 51
17.30345
  0
ARC
  5
359
102
{ACAD_REACTORS
330
3FF
102
}
330
1F
100
AcDbEntity
  8
LC-001-002-----0
 62
     7
370
    50
100
AcDbCircle
 10
392.266787
 20
312.940716
 30
0.0
 40
21.24999999999999
100
AcDbArc
 50
72.69655
 51
107.30345
  0
ARC
  5
35A
102
{ACAD_REACTORS
330
3FF
102
}
330
1F
100
AcDbEntity
  8
LC-001-002-----0
 62
     7
370
    50
100
AcDbCircle
 10
392.266787
 20
312.940716
 30
0.0
 40
14.24999999999991
100
AcDbArc
 50
252.69655
 51
287.30345
  0
ARC
  5
35B
102
{ACAD_REACTORS
330
3FF
102
}
330
1F
100
AcDbEntity
  8
LC-001-002-----0
 62
     7
370
    50
100
AcDbCircle
 10
392.266787
 20
312.940716
 30
0.0
 40
14.24999999999994
100
AcDbArc
 50
342.69655
 51
17.30345
  0
ARC
  5
35C
102
{ACAD_REACTORS
330
3FF
102
}
330
1F
100
AcDbEntity
  8
LC-001-002-----0
 62
     7
370
    50
100
AcDbCircle
 10
392.266787
 20
312.940716
 30
0.0
 40
14.25000000000001
100
AcDbArc
 50
72.69655
 51
107.30345
  0
ARC
  5
35D
102
{ACAD_REACTORS
330
3FF
102
}
330
1F
100
AcDbEntity
  8
LC-001-002-----0
 62
     7
370
    50
100
AcDbCircle
 10
397.546211
 20
295.994029
 30
0.0
 40
3.499999999999973
100
AcDbArc
 50
287.30345
 51
107.30345
  0
ARC
  5
35E
102
{ACAD_REACTORS
330
3FF
102
}
330
1F
100
AcDbEntity
  8
LC-001-002-----0
 62
     7
370
    50
100
AcDbCircle
 10
409.213473
 20
318.22014
 30
0.0
 40
3.500000000000028
100
AcDbArc
 50
17.30345
 51
197.30345
  0
ARC
  5
35F
102
{ACAD_REACTORS
330
3FF
102
}
330
1F
100
AcDbEntity
  8
LC-001-002-----0
 62
     7
370
    50
100
AcDbCircle
 10
386.987362
 20
329.887402
 30
0.0
 40
3.500000000000044
100
AcDbArc
 50
107.30345
 51
287.30345
  0
INSERT
  5
36A
330
1F
100
AcDbEntity
  8
LC-003-005-----0
 62
     7
370
    25
100
AcDbBlockReference
  2
*X1216
 10
0.0
 20
0.0
 30
0.0
  0
INSERT
  5
374
330
1F
100
AcDbEntity
  8
LC-003-005-----0
 62
     7
370
    25
100
AcDbBlockReference
  2
*X1317
 10
0.0
 20
0.0
 30
0.0
  0
INSERT
  5
37E
330
1F
100
AcDbEntity
  8
LC-003-005-----0
 62
     7
370
    25
100
AcDbBlockReference
  2
*X1418
 10
0.0
 20
0.0
 30
0.0
  0
LINE
  5
37F
330
1F
100
AcDbEntity
  8
LC-001-002-----0
 62
     7
370
    50
100
AcDbLine
 10
196.46355
 20
362.096205
 30
0.0
 11
196.18081
 21
372.893607
 31
0.0
  0
LINE
  5
380
330
1F
100
AcDbEntity
  8
LC-001-002-----0
 62
     7
370
    50
100
AcDbLine
 10
188.850516
 20
362.096205
 30
0.0
 11
189.127048
 21
372.656544
 31
0.0
  0
LINE
  5
381
330
1F
100
AcDbEntity
  8
LC-001-002-----0
 62
     7
370
    50
100
AcDbLine
 10
183.454636
 20
362.096205
 30
0.0
 11
183.18081
 21
372.55319
 31
0.0
  0
LINE
  5
382
330
1F
100
AcDbEntity
  8
LC-001-002-----0
 62
     7
370
    50
100
AcDbLine
 10
175.85943
 20
362.096205
 30
0.0
 11
176.127048
 21
372.316127
 31
0.0
  0
LINE
  5
383
330
1F
100
AcDbEntity
  8
LC-001-002-----0
 62
     7
370
    50
100
AcDbLine
 10
169.945379
 20
362.096205
 30
0.0
 11
169.68081
 21
372.19968
 31
0.0
  0
LINE
  5
384
330
1F
100
AcDbEntity
  8
LC-001-002-----0
 62
     7
370
    50
100
AcDbLine
 10
162.368687
 20
362.096205
 30
0.0
 11
162.627048
 21
371.962617
 31
0.0
  0
ARC
  5
385
330
1F
100
AcDbEntity
  8
LC-002-002-RND-0
 62
     7
370
    50
100
AcDbCircle
 10
155.537802
 20
367.096205
 30
0.0
 40
1.999999999999998
100
AcDbArc
 50
12.094757
 51
90.0
  0
LINE
  5
386
330
1F
100
AcDbEntity
  8
LC-001-002-----0
 62
     7
370
    50
100
AcDbLine
 10
155.537802
 20
369.096205
 30
0.0
 11
148.404633
 21
369.096205
 31
0.0
  0
ARC
  5
387
330
1F
100
AcDbEntity
  8
LC-002-002-RND-0
 62
     7
370
    50
100
AcDbCircle
 10
188.127391
 20
372.682721
 30
0.0
 40
0.9999999999999852
100
AcDbArc
 50
358.5
 51
91.5
  0
ARC
  5
388
330
1F
100
AcDbEntity
  8
LC-002-002-RND-0
 62
     7
370
    50
100
AcDbCircle
 10
197.180467
 20
372.919784
 30
0.0
 40
1.000000000000045
100
AcDbArc
 50
91.5
 51
181.5
  0
ARC
  5
389
330
1F
100
AcDbEntity
  8
LC-002-002-RND-0
 62
     7
370
    50
100
AcDbCircle
 10
184.180467
 20
372.579367
 30
0.0
 40
1.000000000000044
100
AcDbArc
 50
91.5
 51
181.5
  0
ARC
  5
38A
330
1F
100
AcDbEntity
  8
LC-002-002-RND-0
 62
     7
370
    50
100
AcDbCircle
 10
175.127391
 20
372.342304
 30
0.0
 40
0.9999999999999882
100
AcDbArc
 50
358.5
 51
91.5
  0
ARC
  5
38B
330
1F
100
AcDbEntity
  8
LC-002-002-RND-0
 62
     7
370
    50
100
AcDbCircle
 10
170.680467
 20
372.225857
 30
0.0
 40
1.000000000000044
100
AcDbArc
 50
91.5
 51
181.5
  0
ARC
  5
38C
330
1F
100
AcDbEntity
  8
LC-002-002-RND-0
 62
     7
370
    50
100
AcDbCircle
 10
161.627391
 20
371.988794
 30
0.0
 40
0.9999999999999882
100
AcDbArc
 50
358.5
 51
91.5
  0
LINE
  5
38D
330
1F
100
AcDbEntity
  8
LC-001-002-----0
 62
     7
370
    50
100
AcDbLine
 10
201.704633
 20
366.596205
 30
0.0
 11
200.704633
 21
365.596205
 31
0.0
  0
LINE
  5
38E
330
1F
100
AcDbEntity
  8
LC-001-002-----0
 62
     7
370
    50
100
AcDbLine
 10
203.904633
 20
374.096205
 30
0.0
 11
148.404633
 21
372.642886
 31
0.0
  0
LINE
  5
38F
330
1F
100
AcDbEntity
  8
LC-001-002-----0
 62
     7
370
    50
100
AcDbLine
 10
205.904633
 20
369.096205
 30
0.0
 11
205.904633
 21
372.096205
 31
0.0
  0
LINE
  5
390
330
1F
100
AcDbEntity
  8
LC-001-002-----0
 62
     7
370
    50
100
AcDbLine
 10
205.904633
 20
369.096205
 30
0.0
 11
201.704633
 21
369.096205
 31
0.0
  0
LINE
  5
391
330
1F
100
AcDbEntity
  8
LC-001-002-----0
 62
     7
370
    50
100
AcDbLine
 10
198.754633
 20
365.596205
 30
0.0
 11
198.754633
 21
362.096205
 31
0.0
  0
LINE
  5
392
330
1F
100
AcDbEntity
  8
LC-001-002-----0
 62
     7
370
    50
100
AcDbLine
 10
198.754633
 20
362.096205
 30
0.0
 11
148.404633
 21
362.096205
 31
0.0
  0
LINE
  5
393
330
1F
100
AcDbEntity
  8
LC-001-002-----0
 62
     7
370
    50
100
AcDbLine
 10
201.704633
 20
369.096205
 30
0.0
 11
201.704633
 21
366.596205
 31
0.0
  0
LINE
  5
394
330
1F
100
AcDbEntity
  8
LC-001-002-----0
 62
     7
370
    50
100
AcDbLine
 10
200.704633
 20
365.596205
 30
0.0
 11
198.754633
 21
365.596205
 31
0.0
  0
ARC
  5
395
330
1F
100
AcDbEntity
  8
LC-002-002-RND-0
 62
     7
370
    50
100
AcDbCircle
 10
203.904633
 20
372.096205
 30
0.0
 40
2.0
100
AcDbArc
 50
0.0
 51
90.0
  0
LINE
  5
396
330
1F
100
AcDbEntity
  8
LC-001-002-----0
 62
     7
370
    50
100
AcDbLine
 10
203.904633
 20
374.096205
 30
0.0
 11
148.404633
 21
374.096205
 31
0.0
  0
INSERT
  5
3A0
330
1F
100
AcDbEntity
  8
LC-003-005-----0
 62
     7
370
    25
100
AcDbBlockReference
  2
*X1519
 10
0.0
 20
0.0
 30
0.0
  0
INSERT
  5
3AA
330
1F
100
AcDbEntity
  8
LC-003-005-----0
 62
     7
370
    25
100
AcDbBlockReference
  2
*X1620
 10
0.0
 20
0.0
 30
0.0
  0
INSERT
  5
3BD
330
1F
100
AcDbEntity
  8
LC-003-005-----0
 62
     7
370
    25
100
AcDbBlockReference
  2
*X1721
 10
0.0
 20
0.0
 30
0.0
  0
INSERT
  5
3C8
330
1F
100
AcDbEntity
  8
LC-003-005-----0
 62
     7
370
    25
100
AcDbBlockReference
  2
*X1822
 10
0.0
 20
0.0
 30
0.0
  0
INSERT
  5
3D2
330
1F
100
AcDbEntity
  8
LC-003-005-----0
 62
     7
370
    25
100
AcDbBlockReference
  2
*X1923
 10
0.0
 20
0.0
 30
0.0
  0
INSERT
  5
3DC
330
1F
100
AcDbEntity
  8
LC-003-005-----0
 62
     7
370
    25
100
AcDbBlockReference
  2
*X2024
 10
0.0
 20
0.0
 30
0.0
  0
LINE
  5
3DD
330
1F
100
AcDbEntity
  8
LC-001-002-----0
 62
     7
370
    50
100
AcDbLine
 10
139.31586
 20
367.515263
 30
0.0
 11
138.154633
 21
362.096205
 31
0.0
  0
LINE
  5
3DE
330
1F
100
AcDbEntity
  8
LC-001-002-----0
 62
     7
370
    50
100
AcDbLine
 10
157.493406
 20
367.515263
 30
0.0
 11
158.654633
 21
362.096205
 31
0.0
  0
LINE
  5
3DF
330
1F
100
AcDbEntity
  8
LC-001-002-----0
 62
     7
370
    50
100
AcDbLine
 10
127.404634
 20
323.553743
 30
0.0
 11
117.392281
 21
323.553743
 31
0.0
  0
LINE
  5
3E0
330
1F
100
AcDbEntity
  8
LC-001-002-----0
 62
     7
370
    50
100
AcDbLine
 10
170.282797
 20
326.151819
 30
0.0
 11
180.892281
 21
326.151819
 31
0.0
  0
DIMENSION
  5
3E1
330
1F
100
AcDbEntity
  8
LC-004-003-----0
 62
     7
370
    25
100
AcDbDimension
  2
*D25
 10
66.057889
 20
367.896204
 30
0.0
 11
35.257889
 21
341.868
 31
0.0
 70
   160
 71
     5
 42
6.2
 53
90.0
  3
LC-DIM-L-0140-02-02
100
AcDbAlignedDimension
 13
89.699633
 23
374.096204
 33
0.0
 14
90.899633
 24
367.896204
 34
0.0
 50
90.0
100
AcDbRotatedDimension
  0
DIMENSION
  5
3EF
330
1F
100
AcDbEntity
  8
LC-004-003-----0
 62
     7
370
    25
100
AcDbDimension
  2
*D26
 10
258.422815
 20
351.895694
 30
0.0
 11
227.622815
 21
296.724
 31
0.0
 70
   160
  1
28-102
 71
     5
 42
102.244703
 53
90.0
  3
LC-DIM-L-0140-02-02
100
AcDbAlignedDimension
 13
194.404633
 23
249.650991
 33
0.0
 14
196.904634
 24
351.895694
 34
0.0
 50
90.0
100
AcDbRotatedDimension
  0
ENDSEC
  0
SECTION
  2
OBJECTS
  0
DICTIONARY
  5
C
330
0
100
AcDbDictionary
281
     1
  3
ACAD_GROUP
350
D
  3
ACAD_LAYOUT
350
1A
  3
ACAD_MLINESTYLE
350
17
  3
ACAD_PLOTSETTINGS
350
19
  3
ACAD_PLOTSTYLENAME
350
E
  0
DICTIONARY
  5
D
102
{ACAD_REACTORS
330
C
102
}
330
C
100
AcDbDictionary
281
     1
  3
LCGROUP1888
350
3FF
  3
LCGROUP944
350
3FD
  3
LCGROUP947
350
3FC
  3
LCGROUP970
350
3FE
  0
DICTIONARY
  5
1A
102
{ACAD_REACTORS
330
C
102
}
330
C
100
AcDbDictionary
281
     1
  3
Layout1
350
1E
  3
Layout2
350
26
  3
Model
350
22
  0
DICTIONARY
  5
17
102
{ACAD_REACTORS
330
C
102
}
330
C
100
AcDbDictionary
281
     1
  3
Standard
350
18
  0
DICTIONARY
  5
19
102
{ACAD_REACTORS
330
C
102
}
330
C
100
AcDbDictionary
281
     1
  0
ACDBDICTIONARYWDFLT
  5
E
102
{ACAD_REACTORS
330
C
102
}
330
C
100
AcDbDictionary
281
     1
  3
Normal
350
F
100
AcDbDictionaryWithDefault
340
F
  0
GROUP
  5
3FF
102
{ACAD_REACTORS
330
D
102
}
330
D
100
AcDbGroup
300
GRP1888-LCMaster-LCGROUP1942
 70
     1
 71
     1
340
2FF
340
300
340
301
340
302
340
303
340
304
340
305
340
306
340
307
340
308
340
309
340
30C
340
30D
340
30E
340
30F
340
310
340
312
340
313
340
314
340
316
340
31B
340
31C
340
322
340
323
340
324
340
325
340
326
340
327
340
328
340
329
340
32A
340
32D
340
330
340
331
340
33B
340
33C
340
33D
340
33E
340
33F
340
340
340
341
340
342
340
343
340
344
340
345
340
346
340
347
340
348
340
349
340
34A
340
34B
340
34C
340
34D
340
34E
340
34F
340
350
340
351
340
352
340
353
340
354
340
355
340
356
340
357
340
358
340
359
340
35A
340
35B
340
35C
340
35D
340
35E
340
35F
  0
GROUP
  5
3FD
102
{ACAD_REACTORS
330
D
102
}
330
D
100
AcDbGroup
300
GRP944
 70
     1
 71
     1
340
9A
340
9B
340
A3
  0
GROUP
  5
3FC
102
{ACAD_REACTORS
330
D
102
}
330
D
100
AcDbGroup
300
GRP947
 70
     1
 71
     1
340
18A
340
190
340
191
  0
GROUP
  5
3FE
102
{ACAD_REACTORS
330
D
102
}
330
D
100
AcDbGroup
300
GRP970
 70
     1
 71
     1
340
192
340
193
340
194
340
195
340
196
340
197
340
198
340
199
340
19A
340
19B
340
19C
340
19D
340
19E
340
19F
340
1A0
340
1A1
340
1A2
340
1A3
340
1A4
340
1A5
340
1A6
340
1A7
340
1A8
340
1A9
340
1AA
340
1AB
340
1AC
340
1AD
340
1AE
340
1AF
340
1B0
340
1B1
340
1B2
340
1B3
340
1B4
340
1B5
340
1B6
340
1B7
340
1B8
340
1E9
340
217
  0
LAYOUT
  5
1E
102
{ACAD_REACTORS
330
1A
102
}
330
1A
100
AcDbPlotSettings
  1

  2

  4

  6

 40
0.0
 41
0.0
 42
0.0
 43
0.0
 44
0.0
 45
0.0
 46
0.0
 47
0.0
 48
0.0
 49
0.0
140
0.0
141
0.0
142
1.0
143
1.0
 70
   688
 72
     0
 73
     0
 74
     5
  7

 75
    16
147
1.0
148
0.0
149
0.0
100
AcDbLayout
  1
Layout1
 70
     1
 71
     1
 10
-271.5
 20
-87.0
 11
568.5
 21
507.0
 12
0.0
 22
0.0
 32
0.0
 14
-271.5
 24
-87.0
 34
0.0
 15
568.5
 25
507.0
 35
0.0
146
0.0
 13
0.0
 23
0.0
 33
0.0
 16
1.0
 26
0.0
 36
0.0
 17
0.0
 27
1.0
 37
0.0
 76
     0
330
1B
  0
LAYOUT
  5
26
102
{ACAD_REACTORS
330
1A
102
}
330
1A
100
AcDbPlotSettings
  1

  2

  4

  6

 40
0.0
 41
0.0
 42
0.0
 43
0.0
 44
0.0
 45
0.0
 46
0.0
 47
0.0
 48
0.0
 49
0.0
140
0.0
141
0.0
142
1.0
143
1.0
 70
   688
 72
     0
 73
     0
 74
     5
  7

 75
    16
147
1.0
148
0.0
149
0.0
100
AcDbLayout
  1
Layout2
 70
     1
 71
     2
 10
0.0
 20
0.0
 11
0.0
 21
0.0
 12
0.0
 22
0.0
 32
0.0
 14
0.0
 24
0.0
 34
0.0
 15
0.0
 25
0.0
 35
0.0
146
0.0
 13
0.0
 23
0.0
 33
0.0
 16
1.0
 26
0.0
 36
0.0
 17
0.0
 27
1.0
 37
0.0
 76
     0
330
23
  0
LAYOUT
  5
22
102
{ACAD_REACTORS
330
1A
102
}
330
1A
100
AcDbPlotSettings
  1

  2

  4

  6

 40
0.0
 41
0.0
 42
0.0
 43
0.0
 44
0.0
 45
0.0
 46
0.0
 47
0.0
 48
0.0
 49
0.0
140
0.0
141
0.0
142
1.0
143
1.0
 70
  1776
 72
     0
 73
     0
 74
     0
  7

 75
     0
147
1.0
148
0.0
149
0.0
100
AcDbLayout
  1
Model
 70
     1
 71
     0
 10
-271.5
 20
-87.0
 11
568.5
 21
507.0
 12
0.0
 22
0.0
 32
0.0
 14
-271.5
 24
-87.0
 34
0.0
 15
568.5
 25
507.0
 35
0.0
146
0.0
 13
0.0
 23
0.0
 33
0.0
 16
1.0
 26
0.0
 36
0.0
 17
0.0
 27
1.0
 37
0.0
 76
     0
330
1F
  0
MLINESTYLE
  5
18
102
{ACAD_REACTORS
330
17
102
}
330
17
100
AcDbMlineStyle
  2
Standard
 70
     0
  3

 62
   256
 51
90.0
 52
90.0
 71
     2
 49
0.5
 62
   256
  6
BYLAYER
 49
-0.5
 62
   256
  6
BYLAYER
  0
ACDBPLACEHOLDER
  5
F
102
{ACAD_REACTORS
330
E
102
}
330
E
  0
ENDSEC
  0
EOF
